Скачать через торрент музыку The Rosenberg Trio with Bireli Lagrene - Djangologists - 2010, FLAC бесплатно без регистрации torrent

Если у вас наблюдаются проблемы со скриншотами, переходом по ссылками, скачиванием торрентов - проблемы в блокировщике рекламы AdBlock. #хорошегоДня!


Статистика раздачи
Размер:  371 MB   |    Зарегистрирован:  5 лет 8 месяцев   |    .torrent скачан:  40 раз   |   
Раздают:  1  
   
Загрузка...
 
Автор Сообщение

Umakiro

avatar Umakiro


The Rosenberg Trio with Bireli Lagrene – Djangologists

Жанр: Gypsy
Год издания диска: 2010
Издатель (лейбл): ENJA
Номер по каталогу: ENJ-9558 2
Аудиокодек: FLAC (*.flac)
Тип рипа: tracks+.cue
Битрейт аудио: lossless
Продолжительность: 62:12
Источник: вата
Наличие сканов в содержимом раздачи: да

Треклист:
01. Vendredi 13 (2:42)
02. Dream Of You (4:34)
03. Peche A La Mouche (3:22)
04. Claire De Lune (3:22)
05. Choti (2:26)
06. Double Jeu (5:18)
07. What Kind Of Friend (3:26)
08. For Sentimental Reasons (2:36)
09. Gipsy Groovin' (2:38)
10. Coquette (2:44)
11. In A Sentimental Mood (4:18)
12. I'll Never Smile Again (2:26)
13. Sweet Chorus (3:42)
14. Webster (3:46)
15. Indifference (2:48)
16. Moonglow (2:54)
17. Yours And Mine (2:38)
18. Tears (6:32)

Personnel:
Stochelo Rosenberg - lead guitar
Nous'che Rosenberg - rhythm guitar
Nonnie Rosenberg - double bass
Bireli Lagrene - lead guitar (3, 6, 14, 18), electric bass (9)

Rec.: Audioworkx Studios, Netherlands, Octiber 23-29, 2009.
 
 
Exact Audio Copy V0.99 prebeta 5 from 4. May 2009

EAC extraction logfile from 30. November 2010, 15:47

The Rosenberg Trio / Djangologists

Used drive : PLEXTOR DVDR PX-860A Adapter: 0 ID: 0

Read mode : SecureUtilize accurate stream : YesDefeat audio cache : YesMake use of C2 pointers : No

Read offset correction : 96Overread into Lead-In and Lead-Out : NoFill up missing offset samples with silence : YesDelete leading and trailing silent blocks : NoNull samples used in CRC calculations : YesUsed interface : Native Win32 interface for Win NT & 2000Gap handling : Appended to previous track

Used output format : User Defined EncoderSelected bitrate : 768 kBit/sQuality : HighAdd ID3 tag : NoCommand line compressor : C:\Program Files\FLAC\flac.exeAdditional command line options : -8 -V -T "ARTIST=%a" -T "TITLE=%t" -T "ALBUM=%g" -T "DATE=%y" -T "TRACKNUMBER=%n" -T "TOTALTRACKS=%x" -T "GENRE=%m" -T "ALBUM ARTIST=%v" -T "ALBUMARTIST=%v" -T "COMMENT=EAC V0.99 prebeta 5, Secure Mode, Test & Copy, Accurat

TOC of the extracted CD

Track | Start | Length | Start sector | End sector --------------------------------------------------------- 1 | 0:00.00 | 2:42.00 | 0 | 12149 2 | 2:42.00 | 4:34.00 | 12150 | 32699 3 | 7:16.00 | 3:22.00 | 32700 | 47849 4 | 10:38.00 | 3:22.00 | 47850 | 62999 5 | 14:00.00 | 2:26.00 | 63000 | 73949 6 | 16:26.00 | 5:18.00 | 73950 | 97799 7 | 21:44.00 | 3:26.00 | 97800 | 113249 8 | 25:10.00 | 2:36.00 | 113250 | 124949 9 | 27:46.00 | 2:38.00 | 124950 | 136799 10 | 30:24.00 | 2:44.00 | 136800 | 149099 11 | 33:08.00 | 4:18.00 | 149100 | 168449 12 | 37:26.00 | 2:26.00 | 168450 | 179399 13 | 39:52.00 | 3:42.00 | 179400 | 196049 14 | 43:34.00 | 3:46.00 | 196050 | 212999 15 | 47:20.00 | 2:48.00 | 213000 | 225599 16 | 50:08.00 | 2:54.00 | 225600 | 238649 17 | 53:02.00 | 2:38.00 | 238650 | 250499 18 | 55:40.00 | 6:31.57 | 250500 | 279881

Track 1

Filename S:\DL\The Rosenberg Trio - Djangologists (2010) [FLAC]\01 - Vendredi 13.wav

Pre-gap length 0:00:02.00

Peak level 100.0 % Track quality 100.0 % Test CRC 924A1A02 Copy CRC 924A1A02 Accurately ripped (confidence 3) [C240D993] Copy OK

Track 2

Filename S:\DL\The Rosenberg Trio - Djangologists (2010) [FLAC]\02 - Dream of You.wav

Pre-gap length 0:00:02.00

Peak level 100.0 % Track quality 100.0 % Test CRC 32FAE210 Copy CRC 32FAE210 Accurately ripped (confidence 3) [FD9BB0B1] Copy OK

Track 3

Filename S:\DL\The Rosenberg Trio - Djangologists (2010) [FLAC]\03 - Peche a la Mouche.wav

Pre-gap length 0:00:02.00

Peak level 82.0 % Track quality 100.0 % Test CRC 7465D32B Copy CRC 7465D32B Accurately ripped (confidence 3) [A3A35D6A] Copy OK

Track 4

Filename S:\DL\The Rosenberg Trio - Djangologists (2010) [FLAC]\04 - Claire de Lune.wav

Pre-gap length 0:00:02.00

Peak level 100.0 % Track quality 100.0 % Test CRC C0A93A73 Copy CRC C0A93A73 Accurately ripped (confidence 3) [93632CEC] Copy OK

Track 5

Filename S:\DL\The Rosenberg Trio - Djangologists (2010) [FLAC]\05 - Choti.wav

Pre-gap length 0:00:02.00

Peak level 100.0 % Track quality 100.0 % Test CRC 125A3982 Copy CRC 125A3982 Accurately ripped (confidence 3) [D5C283BA] Copy OK

Track 6

Filename S:\DL\The Rosenberg Trio - Djangologists (2010) [FLAC]\06 - Double Jeu.wav

Pre-gap length 0:00:02.00

Peak level 100.0 % Track quality 100.0 % Test CRC 851AC8B4 Copy CRC 851AC8B4 Accurately ripped (confidence 3) [E10672A3] Copy OK

Track 7

Filename S:\DL\The Rosenberg Trio - Djangologists (2010) [FLAC]\07 - What kind of Friend.wav

Pre-gap length 0:00:02.00

Peak level 100.0 % Track quality 99.9 % Test CRC 5A53F956 Copy CRC 5A53F956 Accurately ripped (confidence 3) [E7806601] Copy OK

Track 8

Filename S:\DL\The Rosenberg Trio - Djangologists (2010) [FLAC]\08 - For sentimental Reasons.wav

Pre-gap length 0:00:02.00

Peak level 100.0 % Track quality 100.0 % Test CRC 0AD63B8A Copy CRC 0AD63B8A Accurately ripped (confidence 3) [83438E04] Copy OK

Track 9

Filename S:\DL\The Rosenberg Trio - Djangologists (2010) [FLAC]\09 - Gipsy Groovin'.wav

Pre-gap length 0:00:02.00

Peak level 100.0 % Track quality 100.0 % Test CRC 7C91F2C3 Copy CRC 7C91F2C3 Accurately ripped (confidence 3) [1DDF7312] Copy OK

Track 10

Filename S:\DL\The Rosenberg Trio - Djangologists (2010) [FLAC]\10 - Coquette.wav

Pre-gap length 0:00:02.00

Peak level 100.0 % Track quality 100.0 % Test CRC D0D22966 Copy CRC D0D22966 Accurately ripped (confidence 3) [F69E16C5] Copy OK

Track 11

Filename S:\DL\The Rosenberg Trio - Djangologists (2010) [FLAC]\11 - In a sentimental Mood.wav

Pre-gap length 0:00:02.00

Peak level 100.0 % Track quality 99.9 % Test CRC C2FA28DB Copy CRC C2FA28DB Accurately ripped (confidence 3) [941EE07B] Copy OK

Track 12

Filename S:\DL\The Rosenberg Trio - Djangologists (2010) [FLAC]\12 - I'll never smile again.wav

Pre-gap length 0:00:02.00

Peak level 100.0 % Track quality 100.0 % Test CRC 0100DA26 Copy CRC 0100DA26 Accurately ripped (confidence 3) [5EEC07A7] Copy OK

Track 13

Filename S:\DL\The Rosenberg Trio - Djangologists (2010) [FLAC]\13 - Sweet Chorus.wav

Pre-gap length 0:00:02.00

Peak level 100.0 % Track quality 100.0 % Test CRC 28119786 Copy CRC 28119786 Accurately ripped (confidence 3) [C91808F9] Copy OK

Track 14

Filename S:\DL\The Rosenberg Trio - Djangologists (2010) [FLAC]\14 - Webster.wav

Pre-gap length 0:00:02.00

Peak level 100.0 % Track quality 100.0 % Test CRC 7C8CBB58 Copy CRC 7C8CBB58 Accurately ripped (confidence 3) [FE355D73] Copy OK

Track 15

Filename S:\DL\The Rosenberg Trio - Djangologists (2010) [FLAC]\15 - Indiffernce.wav

Pre-gap length 0:00:02.00

Peak level 100.0 % Track quality 99.9 % Test CRC A53E2281 Copy CRC A53E2281 Accurately ripped (confidence 3) [129B0BFA] Copy OK

Track 16

Filename S:\DL\The Rosenberg Trio - Djangologists (2010) [FLAC]\16 - Moonglow.wav

Pre-gap length 0:00:02.00

Peak level 100.0 % Track quality 99.9 % Test CRC FD4E871C Copy CRC FD4E871C Accurately ripped (confidence 3) [FEE7E554] Copy OK

Track 17

Filename S:\DL\The Rosenberg Trio - Djangologists (2010) [FLAC]\17 - Yours and Mine.wav

Pre-gap length 0:00:02.00

Peak level 100.0 % Track quality 100.0 % Test CRC 57070A7D Copy CRC 57070A7D Accurately ripped (confidence 3) [2B2B77EE] Copy OK

Track 18

Filename S:\DL\The Rosenberg Trio - Djangologists (2010) [FLAC]\18 - Tears.wav

Pre-gap length 0:00:02.00

Peak level 100.0 % Track quality 100.0 % Test CRC AC25EAD4 Copy CRC AC25EAD4 Accurately ripped (confidence 3) [EAD3B97C] Copy OK

All tracks accurately ripped

No errors occurred

End of status report
 
REM GENRE JazzREM DATE 2010REM DISCID FA0E9312REM COMMENT "ExactAudioCopy v0.99pb5"PERFORMER "The Rosenberg Trio"TITLE "Djangologists"FILE "01. Vendredi 13.flac" WAVE TRACK 01 AUDIO TITLE "Vendredi 13" PERFORMER "The Rosenberg Trio" INDEX 01 00:00:00 TRACK 02 AUDIO TITLE "Dream Of You" PERFORMER "The Rosenberg Trio" INDEX 00 02:40:00FILE "02. Dream Of You.flac" WAVE INDEX 01 00:00:00 TRACK 03 AUDIO TITLE "Peche A La Mouche" PERFORMER "The Rosenberg Trio" INDEX 00 04:32:00FILE "03. Peche A La Mouche.flac" WAVE INDEX 01 00:00:00 TRACK 04 AUDIO TITLE "Claire De Lune" PERFORMER "The Rosenberg Trio" INDEX 00 03:20:00FILE "04. Claire De Lune.flac" WAVE INDEX 01 00:00:00 TRACK 05 AUDIO TITLE "Choti" PERFORMER "The Rosenberg Trio" INDEX 00 03:20:00FILE "05. Choti.flac" WAVE INDEX 01 00:00:00 TRACK 06 AUDIO TITLE "Double Jeu" PERFORMER "The Rosenberg Trio" INDEX 00 02:24:00FILE "06. Double Jeu.flac" WAVE INDEX 01 00:00:00 TRACK 07 AUDIO TITLE "What Kind Of Friend" PERFORMER "The Rosenberg Trio" INDEX 00 05:16:00FILE "07. What Kind Of Friend.flac" WAVE INDEX 01 00:00:00 TRACK 08 AUDIO TITLE "For Sentimental Reasons" PERFORMER "The Rosenberg Trio" INDEX 00 03:24:00FILE "08. For Sentimental Reasons.flac" WAVE INDEX 01 00:00:00 TRACK 09 AUDIO TITLE "Gipsy Groovin'" PERFORMER "The Rosenberg Trio" INDEX 00 02:34:00FILE "09. Gipsy Groovin'.flac" WAVE INDEX 01 00:00:00 TRACK 10 AUDIO TITLE "Coquette" PERFORMER "The Rosenberg Trio" INDEX 00 02:36:00FILE "10. Coquette.flac" WAVE INDEX 01 00:00:00 TRACK 11 AUDIO TITLE "In A sentimental Mood" PERFORMER "The Rosenberg Trio" INDEX 00 02:42:00FILE "11. In A sentimental Mood.flac" WAVE INDEX 01 00:00:00 TRACK 12 AUDIO TITLE "I'll Never Smile Again" PERFORMER "The Rosenberg Trio" INDEX 00 04:16:00FILE "12. I'll Never Smile Again.flac" WAVE INDEX 01 00:00:00 TRACK 13 AUDIO TITLE "Sweet Chorus" PERFORMER "The Rosenberg Trio" INDEX 00 02:24:00FILE "13. Sweet Chorus.flac" WAVE INDEX 01 00:00:00 TRACK 14 AUDIO TITLE "Webster" PERFORMER "The Rosenberg Trio" INDEX 00 03:40:00FILE "14. Webster.flac" WAVE INDEX 01 00:00:00 TRACK 15 AUDIO TITLE "Indifference" PERFORMER "The Rosenberg Trio" INDEX 00 03:44:00FILE "15. Indifference.flac" WAVE INDEX 01 00:00:00 TRACK 16 AUDIO TITLE "Moonglow" PERFORMER "The Rosenberg Trio" INDEX 00 02:46:00FILE "16. Moonglow.flac" WAVE INDEX 01 00:00:00 TRACK 17 AUDIO TITLE "Yours And Mine" PERFORMER "The Rosenberg Trio" INDEX 00 02:52:00FILE "17. Yours And Mine.flac" WAVE INDEX 01 00:00:00 TRACK 18 AUDIO TITLE "Tears" PERFORMER "The Rosenberg Trio" INDEX 00 02:36:00FILE "18. Tears.flac" WAVE INDEX 01 00:00:00
 
[CUETools log; Date: 26.01.2012 19:56:20; Version: 2.0.9][CTDB TOCID: n4q1xMySV9q0EhBv0fZImcks5g0-] found. [ CTDBID ] Status [3d70405d] (2/2) Accurately ripped[AccurateRip ID: 0027b84a-020fafbb-fa0e9312] found.Track [ CRC ] Status 01 [c240d993] (7/9) Accurately ripped 02 [fd9bb0b1] (7/9) Accurately ripped 03 [a3a35d6a] (7/9) Accurately ripped 04 [93632cec] (7/9) Accurately ripped 05 [d5c283ba] (7/9) Accurately ripped 06 [e10672a3] (7/9) Accurately ripped 07 [e7806601] (7/9) Accurately ripped 08 [83438e04] (7/9) Accurately ripped 09 [1ddf7312] (7/9) Accurately ripped 10 [f69e16c5] (7/9) Accurately ripped 11 [941ee07b] (7/9) Accurately ripped 12 [5eec07a7] (7/9) Accurately ripped 13 [c91808f9] (7/9) Accurately ripped 14 [fe355d73] (7/9) Accurately ripped 15 [129b0bfa] (7/9) Accurately ripped 16 [fee7e554] (7/9) Accurately ripped 17 [2b2b77ee] (7/9) Accurately ripped 18 [ead3b97c] (7/9) Accurately ripped

Track Peak [ CRC32 ] [W/O NULL] [ LOG ] -- 100,0 [D299621A] [26B79633] 01 100,0 [924A1A02] [7C4761B1] CRC32 02 100,0 [32FAE210] [469C1793] CRC32 03 82,0 [7465D32B] [654DAFE3] CRC32 04 100,0 [C0A93A73] [8EB75127] CRC32 05 100,0 [125A3982] [94F1EAE3] CRC32 06 100,0 [851AC8B4] [D3477913] CRC32 07 100,0 [5A53F956] [06062D2C] CRC32 08 100,0 [0AD63B8A] [8CCDFA34] CRC32 09 100,0 [7C91F2C3] [DA85D48F] CRC32 10 100,0 [D0D22966] [BF25275D] CRC32 11 100,0 [C2FA28DB] [9C1DCC06] CRC32 12 100,0 [0100DA26] [8962053B] CRC32 13 100,0 [28119786] [B0A2CA53] CRC32 14 100,0 [7C8CBB58] [4D8F9C49] CRC32 15 100,0 [A53E2281] [EE569835] CRC32 16 100,0 [FD4E871C] [9EF9F24D] CRC32 17 100,0 [57070A7D] [1EA302A6] CRC32 18 100,0 [AC25EAD4] [9FBD08F8] CRC32


Трекер:  [ 28-Янв-2012 07:14 ]

  

Скачать .torrent

Размер .torrent файла 17 KB


Размер: 371 MB
Хэш (hash) релиза: 73a06b8bc8f728df60528156d859ca2f50ec8c31

Еще никто не оставлял запись к записи скачать торрент The Rosenberg Trio with Bireli Lagrene - Djangologists - 2010, FLAC . Будь первым!

!Обратная связь