Скачать через торрент музыку Kenny Werner with The Brussels Jazz Orchestra - Institute Of Higher Learning - 2011, FLAC бесплатно без регистрации torrent

Если у вас наблюдаются проблемы со скриншотами, переходом по ссылками, скачиванием торрентов - проблемы в блокировщике рекламы AdBlock. #хорошегоДня!


Статистика раздачи
Размер:  447 MB   |    Зарегистрирован:  5 лет 8 месяцев   |    .torrent скачан:  31 раз   |   
Раздают:  1  
   
Загрузка...
 
Автор Сообщение

Umakiro

avatar Umakiro


Kenny Werner with The Brussels Jazz Orchestra – Institute Of Higher Learning

Жанр: Modern Big Band
Год издания диска: 2011
Издатель (лейбл): Half Note
Номер по каталогу: 4548
Аудиокодек: FLAC (*.flac)
Тип рипа: tracks+.cue
Битрейт аудио: lossless
Продолжительность: 69:31
Источник: вата
Наличие сканов в содержимом раздачи: да

Треклист:
01. Cantabile - First Movement (10:46)
02. Cantabile - Second Movement (10:54)
03. Cantabile - Third Movement (6:28)
04. Second Love Song (7:47)
05. The House Of The Rising Sun (10:11)
06. Compensation (13:00)
07. Institute Of Higher Learning (10:25)
 
 
Exact Audio Copy V1.0 beta 3 from 29. August 2011

EAC extraction logfile from 26. January 2012, 10:41

Kenny Werner with Brussels Jazz Orchestra / Institute of Higher Learning

Used drive : PLEXTOR DVDR PX-860A Adapter: 0 ID: 0

Read mode : SecureUtilize accurate stream : YesDefeat audio cache : YesMake use of C2 pointers : No

Read offset correction : 96Overread into Lead-In and Lead-Out : NoFill up missing offset samples with silence : YesDelete leading and trailing silent blocks : NoNull samples used in CRC calculations : YesUsed interface : Native Win32 interface for Win NT & 2000Gap handling : Appended to previous track

Used output format : User Defined EncoderSelected bitrate : 1024 kBit/sQuality : HighAdd ID3 tag : NoCommand line compressor : C:\Program Files\Exact Audio Copy 3\Flac\flac.exeAdditional command line options : -8 -V -T "ARTIST=%artist%" -T "TITLE=%title%" -T "ALBUM=%albumtitle%" -T "DATE=%year%" -T "TRACKNUMBER=%tracknr%" -T "GENRE=%genre%" -T "PERFORMER=%albuminterpret%" -T "COMPOSER=%composer%" %haslyrics%--tag-from-file=LYRICS="%lyricsfile%"%haslyrics% -T "ALBUMARTIST=%albumartist%" -T "DISCNUMBER=%cdnumber%" -T "TOTALDISCS=%totalcds%" -T "TOTALTRACKS=%numtracks%" -T "COMMENT=%comment%" %source% -o %dest%

TOC of the extracted CD

Track | Start | Length | Start sector | End sector --------------------------------------------------------- 1 | 0:00.00 | 10:46.29 | 0 | 48478 2 | 10:46.29 | 10:53.62 | 48479 | 97515 3 | 21:40.16 | 6:28.24 | 97516 | 126639 4 | 28:08.40 | 7:46.50 | 126640 | 161639 5 | 35:55.15 | 10:11.19 | 161640 | 207483 6 | 46:06.34 | 13:00.24 | 207484 | 266007 7 | 59:06.58 | 10:24.42 | 266008 | 312849

Track 1

Filename I:\DL\Kenny Werner with Brussels Jazz Orchestra - Institute of Higher Learning (2011) [FLAC]\01 - Cantabile - First Movement.wav

Pre-gap length 0:00:02.00

Peak level 100.0 % Extraction speed 4.0 X Track quality 99.9 % Test CRC 76540C5B Copy CRC 76540C5B Accurately ripped (confidence 1) [82370442] (AR v1) Copy OK

Track 2

Filename I:\DL\Kenny Werner with Brussels Jazz Orchestra - Institute of Higher Learning (2011) [FLAC]\02 - Cantabile - Second Movement.wav

Peak level 88.2 % Extraction speed 1.3 X Track quality 99.9 % Test CRC DADF7686 Copy CRC DADF7686 Accurately ripped (confidence 1) [FCA6D309] (AR v1) Copy OK

Track 3

Filename I:\DL\Kenny Werner with Brussels Jazz Orchestra - Institute of Higher Learning (2011) [FLAC]\03 - Cantabile - Third Movement.wav

Peak level 95.3 % Extraction speed 1.6 X Track quality 100.0 % Test CRC D13A7EFD Copy CRC D13A7EFD Accurately ripped (confidence 1) [B4C31D31] (AR v1) Copy OK

Track 4

Filename I:\DL\Kenny Werner with Brussels Jazz Orchestra - Institute of Higher Learning (2011) [FLAC]\04 - Second Love Song.wav

Peak level 93.3 % Extraction speed 1.7 X Track quality 100.0 % Test CRC A0FB3DE4 Copy CRC A0FB3DE4 Accurately ripped (confidence 1) [DF43D918] (AR v1) Copy OK

Track 5

Filename I:\DL\Kenny Werner with Brussels Jazz Orchestra - Institute of Higher Learning (2011) [FLAC]\05 - The House of the Rising Sun.wav

Peak level 96.8 % Extraction speed 1.6 X Track quality 99.9 % Test CRC 1A4070DE Copy CRC 1A4070DE Accurately ripped (confidence 1) [B7CBCBD9] (AR v1) Copy OK

Track 6

Filename I:\DL\Kenny Werner with Brussels Jazz Orchestra - Institute of Higher Learning (2011) [FLAC]\06 - Compensation.wav

Peak level 95.8 % Extraction speed 2.1 X Track quality 100.0 % Test CRC 98ECCA4A Copy CRC 98ECCA4A Accurately ripped (confidence 1) [35F7A19D] (AR v1) Copy OK

Track 7

Filename I:\DL\Kenny Werner with Brussels Jazz Orchestra - Institute of Higher Learning (2011) [FLAC]\07 - Institute of Higher Learning.wav

Pre-gap length 0:00:01.65

Peak level 98.1 % Extraction speed 2.3 X Track quality 100.0 % Test CRC 8A5D2551 Copy CRC 8A5D2551 Accurately ripped (confidence 1) [AE86AFC5] (AR v1) Copy OK

All tracks accurately ripped

No errors occurred

End of status report

---- CUETools DB Plugin V2.1.3

[CTDB TOCID: AUUhWCvbXqAL6btLmNuuNvKyrjs-] disk not present in database, Submit result: AUUhWCvbXqAL6btLmNuuNvKyrjs- has been uploaded

==== Log checksum C0806BB9C269DA8D4AEC792BDBB091CF02C3EFF12E5CF81A9396205B3C26F277 ====
 
REM GENRE "Jazz"REM DATE 2011REM DISCID 64104B07REM COMMENT "ExactAudioCopy v1.0b3"PERFORMER "Kenny Werner with Brussels Jazz Orchestra"TITLE "Institute Of Higher Learning"FILE "01. Cantabile - First Movement.flac" WAVE TRACK 01 AUDIO TITLE "Cantabile - First Movement" PERFORMER "Kenny Werner with Brussels Jazz Orchestra" INDEX 01 00:00:00FILE "02. Cantabile - Second Movement.flac" WAVE TRACK 02 AUDIO TITLE "Cantabile - Second Movement" PERFORMER "Kenny Werner with Brussels Jazz Orchestra" INDEX 01 00:00:00FILE "03. Cantabile - Third Movement.flac" WAVE TRACK 03 AUDIO TITLE "Cantabile - Third Movement" PERFORMER "Kenny Werner with Brussels Jazz Orchestra" INDEX 01 00:00:00FILE "04. Second Love Song.flac" WAVE TRACK 04 AUDIO TITLE "Second Love Song" PERFORMER "Kenny Werner with Brussels Jazz Orchestra" INDEX 01 00:00:00FILE "05. The House Of The Rising Sun.flac" WAVE TRACK 05 AUDIO TITLE "The House Of The Rising Sun" PERFORMER "Kenny Werner with Brussels Jazz Orchestra" INDEX 01 00:00:00FILE "06. Compensation.flac" WAVE TRACK 06 AUDIO TITLE "Compensation" PERFORMER "Kenny Werner with Brussels Jazz Orchestra" INDEX 01 00:00:00 TRACK 07 AUDIO TITLE "Institute Of Higher Learning" PERFORMER "Kenny Werner with Brussels Jazz Orchestra" INDEX 00 12:58:50FILE "07. Institute Of Higher Learning.flac" WAVE INDEX 01 00:00:00


Трекер:  [ 28-Янв-2012 07:12 ]

  

Скачать .torrent

Размер .torrent файла 19 KB


Размер: 447 MB
Хэш (hash) релиза: 7fc68a7a3cf0e386644d79de6c19806ee3df26fc

Еще никто не оставлял запись к записи скачать торрент Kenny Werner with The Brussels Jazz Orchestra - Institute Of Higher Learning - 2011, FLAC . Будь первым!

!Обратная связь