Скачать через торрент музыку Gary Burton Quartet - Real Life Hits бесплатно без регистрации torrent

Если у вас наблюдаются проблемы со скриншотами, переходом по ссылками, скачиванием торрентов - проблемы в блокировщике рекламы AdBlock. #хорошегоДня!


Статистика раздачи
Размер:  252 MB   |    Зарегистрирован:  5 лет 8 месяцев   |    .torrent скачан:  81 раз   |   
Раздают:  1  
   
Загрузка...
 
Автор Сообщение

Umakiro

avatar Umakiro


Gary Burton Quartet - Real Life Hits

Жанр: Post-Bop
Год выпуска диска: 1985
Производитель диска: ECM 1293 / 825 235-2 (UPC 42282-52352)
Аудио кодек: FLAC
Тип рипа: tracks+.cue
Битрейт аудио: lossless
Продолжительность: 50:15

Трэклист:
01. Syndrome (Bley)
02. The Beatles (Scofield)
03. Fleurette Africaine (Ellington)
04. Ladies in Mercedes (Swallow)
05. Real Life Hits (Bley)
06. I Need You Here (Ozone)
07. Ivanushka Durachok (Lukyanov)

Personnel:
Gary Burton - vibraphone
Makoto Ozone - piano
Steve Swallow - bass
Mike Hyman - drums
Gary Burton has always been notable for his ability to recognize talent in young players. The first time he regularly featured a pianist with his quartet was in the mid-'80s, when he helped bring pianist Makoto Ozone to prominence. With electric bassist Steve Swallow and drummer Mike Hyman completing the group, Burton and Ozone explore originals by Carla Bley (including the title cut), John Scofield ("The Beatles"), Swallow, Ozone, and an obscurity, plus Duke Ellington's "Fleurette Africaine." The appealing group sound and the spontaneous yet tight ensembles and solos make this a worthwhile acquisition.
 
EAC extraction logfile from 7. February 2008, 18:21 for CDGary Burton / Real Life Hits

Used drive : HL-DT-STCD-RW GCE-8481B Adapter: 1 ID: 1Read mode : Secure with NO C2, accurate stream, disable cacheRead offset correction : 6Overread into Lead-In and Lead-Out : No

Used output format : C:\Program Files\FLAC\flac.exe (User Defined Encoder) 128 kBit/s Additional command line options : -5 -V -T "ARTIST=%a" -T "TITLE=%t" -T "ALBUM=%g" -T "DATE=%y" -T "TRACKNUMBER=%n" -T "GENRE=%m" -T "COMMENT=EAC Flac 1.2.1b -5" %s

Other options : Fill up missing offset samples with silence : Yes Delete leading and trailing silent blocks : No Native Win32 interface for Win NT & 2000

Track 1 Filename M:\EAC D1\Gary Burton - Real Life Hits (1985) [FLAC]\01 - Syndrome.wav

Pre-gap length 0:00:02.32

Peak level 77.6 % Track quality 99.9 % Test CRC 11FCD0B2 Copy CRC 11FCD0B2 Copy OK

Track 2 Filename M:\EAC D1\Gary Burton - Real Life Hits (1985) [FLAC]\02 - The Beatles.wav

Pre-gap length 0:00:06.73

Peak level 72.8 % Track quality 100.0 % Test CRC 65203DA5 Copy CRC 65203DA5 Copy OK

Track 3 Filename M:\EAC D1\Gary Burton - Real Life Hits (1985) [FLAC]\03 - Fleurette Africaine.wav

Pre-gap length 0:00:06.35

Peak level 77.6 % Track quality 100.0 % Test CRC 04E0B7B3 Copy CRC 04E0B7B3 Copy OK

Track 4 Filename M:\EAC D1\Gary Burton - Real Life Hits (1985) [FLAC]\04 - Ladies In Mercedes.wav

Pre-gap length 0:00:06.55

Peak level 74.9 % Track quality 100.0 % Test CRC 2C24DA1B Copy CRC 2C24DA1B Copy OK

Track 5 Filename M:\EAC D1\Gary Burton - Real Life Hits (1985) [FLAC]\05 - Real Life Hits.wav

Pre-gap length 0:00:06.73

Peak level 77.6 % Track quality 100.0 % Test CRC CD33C42B Copy CRC CD33C42B Copy OK

Track 6 Filename M:\EAC D1\Gary Burton - Real Life Hits (1985) [FLAC]\06 - I Need You Here.wav

Pre-gap length 0:00:07.00

Peak level 75.8 % Track quality 100.0 % Test CRC 077AD7BC Copy CRC 077AD7BC Copy OK

Track 7 Filename M:\EAC D1\Gary Burton - Real Life Hits (1985) [FLAC]\07 - Ivanushka Durachok.wav

Pre-gap length 0:00:07.36

Peak level 77.6 % Track quality 99.9 % Test CRC 0BDFBC8F Copy CRC 0BDFBC8F Copy OK

No errors occured

End of status report


Трекер:  [ 28-Янв-2012 07:12 ]

  

Скачать .torrent

Размер .torrent файла 21 KB


Размер: 252 MB
Хэш (hash) релиза: 07f5c3fd52fd73bfba35376df492bc34e0f8b35e

Еще никто не оставлял запись к записи скачать торрент Gary Burton Quartet - Real Life Hits . Будь первым!

!Обратная связь