Скачать через торрент музыку Teddy Edwards - Midnight Creeper - 1997, FLAC бесплатно без регистрации torrent

Если у вас наблюдаются проблемы со скриншотами, переходом по ссылками, скачиванием торрентов - проблемы в блокировщике рекламы AdBlock. #хорошегоДня!


Статистика раздачи
Размер:  371 MB   |    Зарегистрирован:  5 лет 8 месяцев   |    .torrent скачан:  32 раза   |   
Раздают:  1  
   
Загрузка...
 
Автор Сообщение

Umakiro

avatar Umakiro


Teddy Edwards - Midnight Creeper

Жанр: Hard Bop
Страна-производитель диска: США
Год издания диска: 1997
Издатель (лейбл): HighNote
Номер по каталогу: HCD 7011
Страна: США
Аудиокодек: FLAC (*.flac)
Тип рипа: tracks+.cue
Битрейт аудио: lossless
Продолжительность: 57:46
Источник (релизер): Vinyll (hqshare)
Наличие сканов в содержимом раздачи: да

Треклист:
01. Midnight Creeper (Edwards) - 7:32
02. Walking in the Rain (Edwards) - 5:43
03. Sensitive (Edwards) - 6:09
04. Lady Be Good (Gershwin-Gershwin) - 10:37
05. Don't Blame Me (McHugh-Fields) - 6:52
06. Sunday (Conn-Krueger-Miller-Styne) - 5:37
07. Tenderly (Gross-Lawrence) - 9:47
08. Almost Like Being in Love (Lerner-Loewe) - 5:29

Состав:
Teddy Edwards - tenor saxophone
Virgil Jones - trumpet (#1-3,6)
Richard Wyands - piano
Buster Williams - bass
Chip White - drums

Recorded at Van Gelder Studios, Englewood Cliffs, NJ on March 7, 1997.
 
Exact Audio Copy V0.99 prebeta 5 from 4. May 2009

EAC extraction logfile from 10. May 2010, 22:20

Teddy Edwards / Midnight Creeper

Used drive : ATAPI iHAS120 6 Adapter: 1 ID: 0

Read mode : SecureUtilize accurate stream : YesDefeat audio cache : YesMake use of C2 pointers : No

Read offset correction : 6Overread into Lead-In and Lead-Out : NoFill up missing offset samples with silence : YesDelete leading and trailing silent blocks : NoNull samples used in CRC calculations : YesUsed interface : Native Win32 interface for Win NT & 2000Gap handling : Appended to previous track

Used output format : User Defined EncoderSelected bitrate : 128 kBit/sQuality : HighAdd ID3 tag : NoCommand line compressor : C:\Program Files (x86)\Exact Audio Copy\flac.exeAdditional command line options : -8 -V -T "ARTIST=%a" -T "TITLE=%t" -T "ALBUM=%g" -T "DATE=%y" -T "TRACKNUMBER=%n" -T "GENRE=%m" -T "COMMENT=EAC FLAC -8" %s

TOC of the extracted CD

Track | Start | Length | Start sector | End sector --------------------------------------------------------- 1 | 0:00.00 | 7:32.00 | 0 | 33899 2 | 7:32.00 | 5:43.00 | 33900 | 59624 3 | 13:15.00 | 6:09.00 | 59625 | 87299 4 | 19:24.00 | 10:37.00 | 87300 | 135074 5 | 30:01.00 | 6:52.00 | 135075 | 165974 6 | 36:53.00 | 5:37.00 | 165975 | 191249 7 | 42:30.00 | 9:47.00 | 191250 | 235274 8 | 52:17.00 | 5:29.30 | 235275 | 259979

Track 1

Filename G:\Lossless prepare\Teddy Edwards - Midnight Creeper (1997) [FLAC]\01 - Midnight Creeper.wav

Pre-gap length 0:00:02.00

Peak level 97.9 % Track quality 100.0 % Test CRC 64319D18 Copy CRC 64319D18 Accurately ripped (confidence 3) [C9610BC2] Copy OK

Track 2

Filename G:\Lossless prepare\Teddy Edwards - Midnight Creeper (1997) [FLAC]\02 - Walking In The Rain.wav

Pre-gap length 0:00:01.60

Peak level 97.9 % Track quality 99.9 % Test CRC 11C53778 Copy CRC 11C53778 Accurately ripped (confidence 3) [CE216475] Copy OK

Track 3

Filename G:\Lossless prepare\Teddy Edwards - Midnight Creeper (1997) [FLAC]\03 - Sensitive.wav

Pre-gap length 0:00:02.60

Peak level 97.9 % Track quality 100.0 % Test CRC DC9298B8 Copy CRC DC9298B8 Accurately ripped (confidence 3) [F4A4766D] Copy OK

Track 4

Filename G:\Lossless prepare\Teddy Edwards - Midnight Creeper (1997) [FLAC]\04 - Lady Be Good.wav

Pre-gap length 0:00:02.60

Peak level 97.9 % Track quality 100.0 % Test CRC 8E86FFB1 Copy CRC 8E86FFB1 Cannot be verified as accurate (confidence 3) [B2CCF981], AccurateRip returned [A6D58AC9] Copy OK

Track 5

Filename G:\Lossless prepare\Teddy Edwards - Midnight Creeper (1997) [FLAC]\05 - Don't Blame Me.wav

Pre-gap length 0:00:02.60

Peak level 97.9 % Track quality 100.0 % Test CRC B46F4726 Copy CRC B46F4726 Accurately ripped (confidence 3) [4CEADD39] Copy OK

Track 6

Filename G:\Lossless prepare\Teddy Edwards - Midnight Creeper (1997) [FLAC]\06 - Sunday.wav

Pre-gap length 0:00:02.60

Peak level 97.9 % Track quality 100.0 % Test CRC 4AC0AB19 Copy CRC 4AC0AB19 Cannot be verified as accurate (confidence 3) [0B08172C], AccurateRip returned [0B63D3F3] Copy OK

Track 7

Filename G:\Lossless prepare\Teddy Edwards - Midnight Creeper (1997) [FLAC]\07 - Tenderly.wav

Pre-gap length 0:00:02.60

Peak level 97.9 % Track quality 100.0 % Test CRC 82BE9212 Copy CRC 82BE9212 Accurately ripped (confidence 3) [509A0923] Copy OK

Track 8

Filename G:\Lossless prepare\Teddy Edwards - Midnight Creeper (1997) [FLAC]\08 - Almost Like Being In Love.wav

Pre-gap length 0:00:02.60

Peak level 97.9 % Track quality 99.9 % Test CRC 430A1D08 Copy CRC 430A1D08 Accurately ripped (confidence 3) [9CEE564B] Copy OK

6 track(s) accurately ripped 2 track(s) could not be verified as accurate

Some tracks could not be verified as accurate

No errors occurred

End of status report
 
REM GENRE JazzREM DATE 1997REM DISCID 680D8A08REM COMMENT "ExactAudioCopy v0.99pb5"PERFORMER "Teddy Edwards"TITLE "Midnight Creeper"FILE "01 - Midnight Creeper.wav" WAVE TRACK 01 AUDIO TITLE "Midnight Creeper" PERFORMER "Teddy Edwards" INDEX 01 00:00:00 TRACK 02 AUDIO TITLE "Walking in the Rain" PERFORMER "Teddy Edwards" INDEX 00 07:30:30FILE "02 - Walking in the Rain.wav" WAVE INDEX 01 00:00:00 TRACK 03 AUDIO TITLE "Sensitive" PERFORMER "Teddy Edwards" INDEX 00 05:40:30FILE "03 - Sensitive.wav" WAVE INDEX 01 00:00:00 TRACK 04 AUDIO TITLE "Lady Be Good" PERFORMER "Teddy Edwards" INDEX 00 06:06:30FILE "04 - Lady Be Good.wav" WAVE INDEX 01 00:00:00 TRACK 05 AUDIO TITLE "Don't Blame Me" PERFORMER "Teddy Edwards" INDEX 00 10:34:30FILE "05 - Don't Blame Me.wav" WAVE INDEX 01 00:00:00 TRACK 06 AUDIO TITLE "Sunday" PERFORMER "Teddy Edwards" INDEX 00 06:49:30FILE "06 - Sunday.wav" WAVE INDEX 01 00:00:00 TRACK 07 AUDIO TITLE "Tenderly" PERFORMER "Teddy Edwards" INDEX 00 05:34:30FILE "07 - Tenderly.wav" WAVE INDEX 01 00:00:00 TRACK 08 AUDIO TITLE "Almost Like Being in Love" PERFORMER "Teddy Edwards" INDEX 00 09:44:30FILE "08 - Almost Like Being in Love.wav" WAVE INDEX 01 00:00:00
This CD is really two recordings in one. It starts off with three fine originals by tenor saxophonist Teddy Edwards, who is featured with a quintet also consisting of the underrated trumpeter Virgil Jones, pianist Richard Wyands, bassist Buster Williams and drummer Chip White. However the music really becomes memorable when Edwards performs a slower than usual, 10½-minute version of "Lady Be Good." He also has melodic and swinging renditions of "Don't Blame Me," "Tenderly" and "Almost Like Being in Love" as warm quartet features and jams "Sunday" with Jones. 52 years after his recording debut, Teddy Edwards proved to still be in his musical prime.


Трекер:  [ 28-Янв-2012 07:11 ]

  

Скачать .torrent

Размер .torrent файла 15 KB


Размер: 371 MB
Хэш (hash) релиза: bed50a51b088d9ea760362742b49eb86670e31c0

Еще никто не оставлял запись к записи скачать торрент Teddy Edwards - Midnight Creeper - 1997, FLAC . Будь первым!

!Обратная связь