Скачать через торрент музыку Hampton Hawes - The Green Leaves of Summer - 1964, FLAC бесплатно без регистрации torrent

Если у вас наблюдаются проблемы со скриншотами, переходом по ссылками, скачиванием торрентов - проблемы в блокировщике рекламы AdBlock. #хорошегоДня!


Статистика раздачи
Размер:  220 MB   |    Зарегистрирован:  5 лет 8 месяцев   |    .torrent скачан:  28 раз   |   
Раздают:  1  
   
Загрузка...
 
Автор Сообщение

Umakiro

avatar Umakiro


Hampton Hawes - The Green Leaves of Summer

Жанр: Bop, Hard Bop, Mainstream Jazz
Страна-производитель диска: США
Год издания диска: 1990
Издатель (лейбл): Contemporary / Original Jazz Classics
Номер по каталогу: OJCCD-476-2 (S-7614)
Страна: США
Аудиокодек: FLAC (*.flac)
Тип рипа: tracks+.cue
Битрейт аудио: lossless
Продолжительность: 39:42
Источник (релизер): интернет
Наличие сканов в содержимом раздачи: да

Треклист:
01. Vierd Blues (Davis) - 5:32
02. The Green Leaves of Summer (Webster-Tiomkin) - 6:22
03. Ill Wind (Koehler-Arlen) - 3:55
04. St. Thomas (Rollins) - 3:10
05. Secret Love (Webster-Fain) - 5:36
06. Blue Skies (Berlin) - 5:24
07. The More I See You (Warren-Gordon) - 5:34
08. G.K. Blues (Hawes) - 4:09

Состав:
Hampton Hawes - piano
Monk Montgomery - bass
Steve Ellington - drums

Recorded at Contemporary Studios, Los Angeles on February 17, 1964.
 
EAC extraction logfile from 29. March 2008, 15:53 for CDHampton Hawes / The Green Leaves Of Summer

Used drive : HL-DT-STCDRW/DVD GCC4482 Adapter: 1 ID: 0Read mode : Secure with NO C2, accurate stream, disable cacheRead offset correction : 6Overread into Lead-In and Lead-Out : No

Used output format : C:\Eac\Codecs\flac.exe (User Defined Encoder) 320 kBit/s Additional command line options : -8 -V -T "artist=%a" -T "title=%t" -T "album=%g" -T "date=%y" -T "tracknumber=%n" -T "genre=%m" -T "comment=EAC Flac 1.1.2 -8" %s

Other options : Fill up missing offset samples with silence : Yes Delete leading and trailing silent blocks : No Installed external ASPI interface

Track 1 Filename C:\Documents and Settings\hh\01 - Vierd Blues.wav

Pre-gap length 0:00:02.00

Peak level 100.0 % Track quality 100.0 % Test CRC 3F943651 Copy CRC 3F943651 Copy OK

Track 2 Filename C:\Documents and Settings\hh\02 - The Green Leaves Of Summer.wav

Pre-gap length 0:00:03.08

Peak level 53.8 % Track quality 100.0 % Test CRC 29148B7D Copy CRC 29148B7D Copy OK

Track 3 Filename C:\Documents and Settings\hh\03 - Ill Wind.wav

Pre-gap length 0:00:02.53

Peak level 58.5 % Track quality 100.0 % Test CRC 0FF002EB Copy CRC 0FF002EB Copy OK

Track 4 Filename C:\Documents and Settings\hh\04 - St. Thomas.wav

Pre-gap length 0:00:02.76

Peak level 54.7 % Track quality 99.9 % Test CRC A59DA507 Copy CRC A59DA507 Copy OK

Track 5 Filename C:\Documents and Settings\hh\05 - Secret Love.wav

Pre-gap length 0:00:01.89

Peak level 75.8 % Track quality 99.9 % Test CRC D51E212E Copy CRC D51E212E Copy OK

Track 6 Filename C:\Documents and Settings\hh\06 - Blue Skies.wav

Pre-gap length 0:00:02.33

Peak level 59.0 % Track quality 100.0 % Test CRC 64307647 Copy CRC 64307647 Copy OK

Track 7 Filename C:\Documents and Settings\hh\07 - The More I See You.wav

Pre-gap length 0:00:04.66

Peak level 56.6 % Track quality 100.0 % Test CRC 04119F43 Copy CRC 04119F43 Copy OK

Track 8 Filename C:\Documents and Settings\hh\08 - G.K. Blues.wav

Pre-gap length 0:00:03.16

Peak level 79.6 % Track quality 100.0 % Test CRC 67167042 Copy CRC 67167042 Copy OK

No errors occured

End of status report
 
REM GENRE JazzREM DATE 1964REM DISCID 63095208REM COMMENT "ExactAudioCopy v0.95b4"PERFORMER "Hampton Hawes"TITLE "The Green Leaves of Summer"FILE "01 - Vierd Blues.wav" WAVE TRACK 01 AUDIO TITLE "Vierd Blues" PERFORMER "Hampton Hawes" INDEX 01 00:00:00 TRACK 02 AUDIO TITLE "The Green Leaves of Summer" PERFORMER "Hampton Hawes" INDEX 00 05:29:11FILE "02 - The Green Leaves of Summer.wav" WAVE INDEX 01 00:00:00 TRACK 03 AUDIO TITLE "Ill Wind" PERFORMER "Hampton Hawes" INDEX 00 06:20:20FILE "03 - Ill Wind.wav" WAVE INDEX 01 00:00:00 TRACK 04 AUDIO TITLE "St. Thomas" PERFORMER "Hampton Hawes" INDEX 00 03:53:03FILE "04 - St. Thomas.wav" WAVE INDEX 01 00:00:00 TRACK 05 AUDIO TITLE "Secret Love" PERFORMER "Hampton Hawes" INDEX 00 03:08:28FILE "05 - Secret Love.wav" WAVE INDEX 01 00:00:00 TRACK 06 AUDIO TITLE "Blue Skies" PERFORMER "Hampton Hawes" INDEX 00 05:34:25FILE "06 - Blue Skies.wav" WAVE INDEX 01 00:00:00 TRACK 07 AUDIO TITLE "The More I See You" PERFORMER "Hampton Hawes" INDEX 00 05:19:33FILE "07 - The More I See You.wav" WAVE INDEX 01 00:00:00 TRACK 08 AUDIO TITLE "G.K. Blues" PERFORMER "Hampton Hawes" INDEX 00 05:31:55FILE "08 - G.K. Blues.wav" WAVE INDEX 01 00:00:00
 
auCDtect: CD records authenticity detector, version 0.8.2Copyright (c) 2004 Oleg Berngardt. All rights reserved.Copyright (c) 2004 Alexander Djourik. All rights reserved.------------------------------------------------------------Processing file: [01 - Vierd Blues.wav]Detected average hi-boundary frequency: 2.104819e+004 HzDetected average lo-boundary frequency: 1.714764e+004 HzDetected average hi-cut frequency: 2.179257e+004 HzDetected average lo-cut frequency: 1.974946e+004 HzMaximum probablis boundary frequency: 2.189100e+004 HzCoefficient of nonlinearity of a phase: 9.221357e-002First order smothness: 4.059268e-001Second order smothness: 7.861336e-001

------------------------------------------------------------This track looks like CDDA with probability 100%

------------------------------------------------------------Processing file: [02 - The Green Leaves of Summer.wav]Detected average hi-boundary frequency: 2.036347e+004 HzDetected average lo-boundary frequency: 1.374856e+004 HzDetected average hi-cut frequency: 2.182010e+004 HzDetected average lo-cut frequency: 1.633857e+004 HzMaximum probablis boundary frequency: 2.189100e+004 HzCoefficient of nonlinearity of a phase: 1.224818e-001First order smothness: 3.770015e-001Second order smothness: 7.814168e-001

------------------------------------------------------------This track looks like CDDA with probability 100%

------------------------------------------------------------Processing file: [03 - Ill Wind.wav]Detected average hi-boundary frequency: 2.005559e+004 HzDetected average lo-boundary frequency: 1.272260e+004 HzDetected average hi-cut frequency: 2.174618e+004 HzDetected average lo-cut frequency: 1.466075e+004 HzMaximum probablis boundary frequency: 2.189100e+004 HzCoefficient of nonlinearity of a phase: 5.221730e-001First order smothness: 3.591965e-001Second order smothness: 7.109098e-001

------------------------------------------------------------This track looks like CDDA with probability 100%

------------------------------------------------------------Processing file: [04 - St. Thomas.wav]Detected average hi-boundary frequency: 2.038798e+004 HzDetected average lo-boundary frequency: 1.338011e+004 HzDetected average hi-cut frequency: 2.176879e+004 HzDetected average lo-cut frequency: 1.745641e+004 HzMaximum probablis boundary frequency: 2.189100e+004 HzCoefficient of nonlinearity of a phase: 2.247419e-001First order smothness: 5.783309e-001Second order smothness: 6.071254e-001

------------------------------------------------------------This track looks like CDDA with probability 100%

------------------------------------------------------------Processing file: [05 - Secret Love.wav]Detected average hi-boundary frequency: 2.087349e+004 HzDetected average lo-boundary frequency: 1.649808e+004 HzDetected average hi-cut frequency: 2.182823e+004 HzDetected average lo-cut frequency: 1.885619e+004 HzMaximum probablis boundary frequency: 2.189100e+004 HzCoefficient of nonlinearity of a phase: 8.755045e-002First order smothness: 4.543448e-001Second order smothness: 7.423448e-001

------------------------------------------------------------This track looks like CDDA with probability 100%

------------------------------------------------------------Processing file: [06 - Blue Skies.wav]Detected average hi-boundary frequency: 2.043095e+004 HzDetected average lo-boundary frequency: 1.443575e+004 HzDetected average hi-cut frequency: 2.174953e+004 HzDetected average lo-cut frequency: 1.618705e+004 HzMaximum probablis boundary frequency: 2.189100e+004 HzCoefficient of nonlinearity of a phase: 5.130076e-002First order smothness: 3.841060e-001Second order smothness: 7.365390e-001

------------------------------------------------------------This track looks like CDDA with probability 100%

------------------------------------------------------------Processing file: [07 - The More I See You.wav]Detected average hi-boundary frequency: 2.053814e+004 HzDetected average lo-boundary frequency: 1.536215e+004 HzDetected average hi-cut frequency: 2.176671e+004 HzDetected average lo-cut frequency: 1.689976e+004 HzMaximum probablis boundary frequency: 2.189100e+004 HzCoefficient of nonlinearity of a phase: 1.168267e-001First order smothness: 3.868552e-001Second order smothness: 7.551303e-001

------------------------------------------------------------This track looks like CDDA with probability 100%

------------------------------------------------------------Processing file: [08 - G.K. Blues.wav]Detected average hi-boundary frequency: 2.110678e+004 HzDetected average lo-boundary frequency: 1.766162e+004 HzDetected average hi-cut frequency: 2.177727e+004 HzDetected average lo-cut frequency: 1.989123e+004 HzMaximum probablis boundary frequency: 2.189100e+004 HzCoefficient of nonlinearity of a phase: 7.947112e-002First order smothness: 4.136262e-001Second order smothness: 7.695458e-001

------------------------------------------------------------Could not qualify the source of this track.
Pianist Hampton Hawes' first recording after serving five years in prison finds Hawes evolving a bit from a Bud Powell-influenced bop pianist to one familiar with more modern trends in jazz. Reissued on CD, this trio date finds Hawes interacting closely with bassist Monk Montgomery and drummer Steve Ellington (making his recording debut). Hawes had lost nothing of his swinging style while in prison, as can be heard on such numbers as "Vierd Blues," "St. Thomas" and "Secret Love," and he was just starting to hint at moving beyond bop. Recommended.


Трекер:  [ 28-Янв-2012 07:11 ]

  

Скачать .torrent

Размер .torrent файла 18 KB


Размер: 220 MB
Хэш (hash) релиза: 764aca88e842d89d8b055abb921ec352c6f3a893

Еще никто не оставлял запись к записи скачать торрент Hampton Hawes - The Green Leaves of Summer - 1964, FLAC . Будь первым!

!Обратная связь