Скачать через торрент музыку Alboran Trio - Meltemi - 2006, FLAC бесплатно без регистрации torrent

Если у вас наблюдаются проблемы со скриншотами, переходом по ссылками, скачиванием торрентов - проблемы в блокировщике рекламы AdBlock. #хорошегоДня!


Статистика раздачи
Размер:  340 MB   |    Зарегистрирован:  5 лет 8 месяцев   |    .torrent скачан:  36 раз   |   
Раздают:  1  
   
Загрузка...
 
Автор Сообщение

Umakiro

avatar Umakiro


Alboran Trio - Meltemi
Жанр: act, contemporary jazz, piano
Год выпуска диска: 2006
Производитель диска: ACT 9448-2
Аудио кодек: FLAC
Тип рипа: tracks+.cue +Complete Artwork
Битрейт аудио: lossless
Продолжительность: 59:42

Трэклист:
1. Nic's Road - 06:23 (Paliaga, Paolo)
2. Balkan Air - 05:44 (Paliaga, Paolo)
3. Pianissimo - 07:29 (Paliaga, Paolo)
4. Cinque lunghissimi minuti - 09:18 (Paliaga, Paolo)
5. Duende - 06:08 (Paliaga, Paolo)
6. Hoy es mañana? - 03:55 (Paliaga, Paolo)
7. Ho sognato che mi amavi - 06:16 (Paliaga, Paolo)
8. Meltemi - 04:05 (Paliaga, Paolo)
9. Ninna nanna Nic - 04:50 (Paliaga, Paolo)
10. Theme from the movie "Pinocchio" - 05:31 (Carpi)
 
Exact Audio Copy V0.99 prebeta 4 from 23. January 2008

EAC extraction logfile from 10. June 2008, 21:26

Alboran Trio / Meltemi

Used drive : PLEXTOR CD-R PREMIUM2 Adapter: 1 ID: 1

Read mode : SecureUtilize accurate stream : YesDefeat audio cache : YesMake use of C2 pointers : No

Read offset correction : 30Overread into Lead-In and Lead-Out : NoFill up missing offset samples with silence : YesDelete leading and trailing silent blocks : NoNull samples used in CRC calculations : YesUsed interface : Installed external ASPI interfaceGap handling : Appended to previous track

Used output format : User Defined EncoderSelected bitrate : 32 kBit/sQuality : HighAdd ID3 tag : NoCommand line compressor : C:\Programmi\FLAC\flac.exeAdditional command line options : -8 -V -T "ARTIST=%a" -T "TITLE=%t" -T "ALBUM=%g" -T "DATE=%y" -T "TRACKNUMBER=%n" -T "GENRE=%m" -T "COMMENT=EAC FLAC -8" %s

TOC of the extracted CD

Track | Start | Length | Start sector | End sector --------------------------------------------------------- 1 | 0:00.00 | 6:25.60 | 0 | 28934 2 | 6:25.60 | 5:46.14 | 28935 | 54898 3 | 12:11.74 | 7:30.49 | 54899 | 88697 4 | 19:42.48 | 9:20.28 | 88698 | 130725 5 | 29:03.01 | 6:10.18 | 130726 | 158493 6 | 35:13.19 | 3:57.49 | 158494 | 176317 7 | 39:10.68 | 6:18.12 | 176318 | 204679 8 | 45:29.05 | 4:07.24 | 204680 | 223228 9 | 49:36.29 | 4:52.02 | 223229 | 245130 10 | 54:28.31 | 5:31.64 | 245131 | 270019

Track 1

Filename C:\My Rip\01 - Nic's Road.wav

Pre-gap length 0:00:02.00

Peak level 96.6 % Track quality 100.0 % Test CRC 4E242776 Copy CRC 4E242776 Track not present in AccurateRip database Copy OK

Track 2

Filename C:\My Rip\02 - Balkan Air.wav

Pre-gap length 0:00:02.00

Peak level 96.6 % Track quality 100.0 % Test CRC 7351AB35 Copy CRC 7351AB35 Track not present in AccurateRip database Copy OK

Track 3

Filename C:\My Rip\03 - Pianissimo.wav

Pre-gap length 0:00:02.00

Peak level 96.6 % Track quality 100.0 % Test CRC D6A66B52 Copy CRC D6A66B52 Track not present in AccurateRip database Copy OK

Track 4

Filename C:\My Rip\04 - Cinque Lunghissimi Minuti.wav

Pre-gap length 0:00:02.00

Peak level 96.6 % Track quality 100.0 % Test CRC 807091DA Copy CRC 807091DA Track not present in AccurateRip database Copy OK

Track 5

Filename C:\My Rip\05 - Duende.wav

Pre-gap length 0:00:02.00

Peak level 96.6 % Track quality 99.9 % Test CRC 8883F2C9 Copy CRC 8883F2C9 Track not present in AccurateRip database Copy OK

Track 6

Filename C:\My Rip\06 - Hoy Es Manana .wav

Pre-gap length 0:00:02.00

Peak level 96.6 % Track quality 100.0 % Test CRC DE914D6F Copy CRC DE914D6F Track not present in AccurateRip database Copy OK

Track 7

Filename C:\My Rip\07 - Ho Sognato Che Mi Amavi.wav

Pre-gap length 0:00:02.00

Peak level 96.6 % Track quality 100.0 % Test CRC A6114E3E Copy CRC A6114E3E Track not present in AccurateRip database Copy OK

Track 8

Filename C:\My Rip\08 - Meltemi.wav

Pre-gap length 0:00:02.00

Peak level 96.6 % Track quality 100.0 % Test CRC FFAC2D9B Copy CRC FFAC2D9B Track not present in AccurateRip database Copy OK

Track 9

Filename C:\My Rip\09 - Ninna Nanna Nic.wav

Pre-gap length 0:00:02.00

Peak level 96.6 % Track quality 100.0 % Test CRC 29A5118D Copy CRC 29A5118D Track not present in AccurateRip database Copy OK

Track 10

Filename C:\My Rip\10 - Theme From The Movie 'Pinocchio'.wav

Pre-gap length 0:00:02.00

Peak level 96.6 % Track quality 100.0 % Test CRC 1C5E1382 Copy CRC 1C5E1382 Track not present in AccurateRip database Copy OK

None of the tracks are present in the AccurateRip database

No errors occurred

End of status report
 

Код:

REM GENRE Traditional
REM DATE 2006
REM DISCID 880E100A
REM COMMENT "ExactAudioCopy v0.99pb4"
PERFORMER "Alboran Trio"
TITLE "Meltemi"
FILE "01 - Nic's Road.flac" WAVE
  TRACK 01 AUDIO
    TITLE "Nic's Road"
    PERFORMER "Alboran Trio"
    INDEX 01 00:00:00
  TRACK 02 AUDIO
    TITLE "Balkan Air"
    PERFORMER "Alboran Trio"
    INDEX 00 06:23:60
FILE "02 - Balkan Air.flac" WAVE
    INDEX 01 00:00:00
  TRACK 03 AUDIO
    TITLE "Pianissimo"
    PERFORMER "Alboran Trio"
    INDEX 00 05:44:14
FILE "03 - Pianissimo.flac" WAVE
    INDEX 01 00:00:00
  TRACK 04 AUDIO
    TITLE "Cinque Lunghissimi Minuti"
    PERFORMER "Alboran Trio"
    INDEX 00 07:28:49
FILE "04 - Cinque Lunghissimi Minuti.flac" WAVE
    INDEX 01 00:00:00
  TRACK 05 AUDIO
    TITLE "Duende"
    PERFORMER "Alboran Trio"
    INDEX 00 09:18:28
FILE "05 - Duende.flac" WAVE
    INDEX 01 00:00:00
  TRACK 06 AUDIO
    TITLE "Hoy Es Manana?"
    PERFORMER "Alboran Trio"
    INDEX 00 06:08:18
FILE "06 - Hoy Es Manana .flac" WAVE
    INDEX 01 00:00:00
  TRACK 07 AUDIO
    TITLE "Ho Sognato Che Mi Amavi"
    PERFORMER "Alboran Trio"
    INDEX 00 03:55:49
FILE "07 - Ho Sognato Che Mi Amavi.flac" WAVE
    INDEX 01 00:00:00
  TRACK 08 AUDIO
    TITLE "Meltemi"
    PERFORMER "Alboran Trio"
    INDEX 00 06:16:12
FILE "08 - Meltemi.flac" WAVE
    INDEX 01 00:00:00
  TRACK 09 AUDIO
    TITLE "Ninna Nanna Nic"
    PERFORMER "Alboran Trio"
    INDEX 00 04:05:24
FILE "09 - Ninna Nanna Nic.flac" WAVE
    INDEX 01 00:00:00
  TRACK 10 AUDIO
    TITLE "Theme From The Movie 'Pinocchio'"
    PERFORMER "Alboran Trio"
    INDEX 00 04:50:02
FILE "10 - Theme From The Movie 'Pinocchio'.flac" WAVE
    INDEX 01 00:00:00
Доп. информация:

Очень вкусный меланхоличный фортепианный джаз. Мелодизм, глубина и чувственность музыкантов не оставляют равнодушными.

Line Up:
Paolo Paliaga – piano
Dino Contenti – double bass
Gigi Biolcati - drums

Диск взят с другого трекера. Спасибо Sarchiapone


Трекер:  [ 28-Янв-2012 07:10 ]

  

Скачать .torrent

Размер .torrent файла 15 KB


Размер: 340 MB
Хэш (hash) релиза: 84ad9b9a520775607d4680e859eecbcbdf141d2b

Еще никто не оставлял запись к записи скачать торрент Alboran Trio - Meltemi - 2006, FLAC . Будь первым!

!Обратная связь