Скачать через торрент музыку Perico Sambeat - Baladas - 2011, FLAC бесплатно без регистрации torrent

Если у вас наблюдаются проблемы со скриншотами, переходом по ссылками, скачиванием торрентов - проблемы в блокировщике рекламы AdBlock. #хорошегоДня!


Статистика раздачи
Размер:  386 MB   |    Зарегистрирован:  5 лет 8 месяцев   |    .torrent скачан:  30 раз   |   
Раздают:  1  
   
Загрузка...
 
Автор Сообщение

Umakiro

avatar Umakiro


Perico Sambeat - Baladas

Жанр: Post-Bop
Страна-производитель диска: Spain
Год издания диска: 2011
Издатель (лейбл): Karonte
Номер по каталогу: KAR 7826
Страна: Valencia, ES
Аудиокодек: FLAC (*.flac)
Тип рипа: tracks+.cue
Битрейт аудио: lossless
Продолжительность: 00:54:11
Источник (релизер): jlgt
Наличие сканов в содержимом раздачи: да
01. I cover the waterfront [06:35]
02. Maria de la O [05:02]
03. Please tell me now [05:00]
04. Huella del silencio [03:52]
05. Tu, mi delirio [04:49]
06. Los aretes de la luna [04:35]
07. Noche azul [05:24]
08. Deep song [06:33]
09. While my lady sleeps [05:17]
10. Flor de perdicion [04:08]
11. Cuando me vaya [02:50]

Recorded at Estudios Cata by Oscar Herrador, Manuel Pájaro and Emilio García, December 22 and 23, 2010
 
Exact Audio Copy V1.0 beta 2 from 29. April 2011

EAC extraction logfile from 26. January 2012, 22:56

Perico Sambeat / Baladas

Used drive : PLEXTOR DVDR PX-L890SA Adapter: 2 ID: 1

Read mode : SecureUtilize accurate stream : YesDefeat audio cache : YesMake use of C2 pointers : No

Read offset correction : 6Overread into Lead-In and Lead-Out : NoFill up missing offset samples with silence : YesDelete leading and trailing silent blocks : NoNull samples used in CRC calculations : YesUsed interface : Native Win32 interface for Win NT & 2000Gap handling : Appended to previous track

Used output format : User Defined EncoderSelected bitrate : 256 kBit/sQuality : HighAdd ID3 tag : NoCommand line compressor : C:\Program Files (x86)\Exact Audio Copy\FLAC\FLAC.EXEAdditional command line options : -8 -V -T "ARTIST=%artist%" -T "TITLE=%title%" -T "ALBUM=%albumtitle%" -T "DATE=%year%" -T "TRACKNUMBER=%tracknr%" -T "TOTALTRACKS=%numtracks%" -T "GENRE=%genre%" -T "ALBUMARTIST=%albumartist%" -T "ALBUM ARTIST=%albumartist%

TOC of the extracted CD

Track | Start | Length | Start sector | End sector --------------------------------------------------------- 1 | 0:00.00 | 6:37.68 | 0 | 29842 2 | 6:37.68 | 5:04.44 | 29843 | 52686 3 | 11:42.37 | 5:01.24 | 52687 | 75285 4 | 16:43.61 | 3:52.42 | 75286 | 92727 5 | 20:36.28 | 4:50.55 | 92728 | 114532 6 | 25:27.08 | 4:37.60 | 114533 | 135367 7 | 30:04.68 | 5:27.65 | 135368 | 159957 8 | 35:32.58 | 6:34.26 | 159958 | 189533 9 | 42:07.09 | 5:18.30 | 189534 | 213413 10 | 47:25.39 | 4:09.12 | 213414 | 232100 11 | 51:34.51 | 2:50.58 | 232101 | 244908

Track 1

Filename F:\Flac Rips\01 - I cover the waterfront.wav

Pre-gap length 0:00:02.00

Peak level 97.7 % Extraction speed 4.1 X Track quality 100.0 % Test CRC CEE1A19B Copy CRC CEE1A19B Accurately ripped (confidence 1) [E1086C7B] (AR v2) Copy OK

Track 2

Filename F:\Flac Rips\02 - Maria de la O.wav

Pre-gap length 0:00:02.00

Peak level 97.7 % Extraction speed 4.6 X Track quality 100.0 % Test CRC 66016417 Copy CRC 66016417 Accurately ripped (confidence 1) [5BE2CF7C] (AR v2) Copy OK

Track 3

Filename F:\Flac Rips\03 - Please tell me now.wav

Pre-gap length 0:00:02.00

Peak level 97.7 % Extraction speed 4.9 X Track quality 100.0 % Test CRC 555BC413 Copy CRC 555BC413 Accurately ripped (confidence 1) [F71F9AE4] (AR v2) Copy OK

Track 4

Filename F:\Flac Rips\04 - Huella del silencio.wav

Pre-gap length 0:00:01.00

Peak level 97.7 % Extraction speed 5.1 X Track quality 100.0 % Test CRC D77B98F0 Copy CRC D77B98F0 Accurately ripped (confidence 1) [B263053F] (AR v2) Copy OK

Track 5

Filename F:\Flac Rips\05 - Tu, mi delirio.wav

Peak level 97.7 % Extraction speed 5.5 X Track quality 100.0 % Test CRC 582DB926 Copy CRC 582DB926 Accurately ripped (confidence 1) [F93AC6DD] (AR v2) Copy OK

Track 6

Filename F:\Flac Rips\06 - Los aretes de la luna.wav

Pre-gap length 0:00:01.00

Peak level 97.7 % Extraction speed 5.8 X Track quality 100.0 % Test CRC 34346F2C Copy CRC 34346F2C Accurately ripped (confidence 1) [4F918724] (AR v2) Copy OK

Track 7

Filename F:\Flac Rips\07 - Noche azul.wav

Pre-gap length 0:00:02.00

Peak level 97.7 % Extraction speed 6.1 X Track quality 100.0 % Test CRC F3EA6120 Copy CRC F3EA6120 Accurately ripped (confidence 1) [F25339AF] (AR v2) Copy OK

Track 8

Filename F:\Flac Rips\08 - Deep song.wav

Pre-gap length 0:00:03.00

Peak level 97.7 % Extraction speed 6.6 X Track quality 100.0 % Test CRC 6C712779 Copy CRC 6C712779 Accurately ripped (confidence 1) [64DE6739] (AR v2) Copy OK

Track 9

Filename F:\Flac Rips\09 - While my lady sleeps.wav

Pre-gap length 0:00:01.00

Peak level 97.7 % Extraction speed 5.7 X Track quality 99.9 % Test CRC DC56A5D2 Copy CRC DC56A5D2 Accurately ripped (confidence 1) [F5CBDB03] (AR v2) Copy OK

Track 10

Filename F:\Flac Rips\10 - Flor de perdicion.wav

Pre-gap length 0:00:01.00

Peak level 97.7 % Extraction speed 6.9 X Track quality 100.0 % Test CRC B9C6EE52 Copy CRC B9C6EE52 Accurately ripped (confidence 1) [2BCFAA8C] (AR v2) Copy OK

Track 11

Filename F:\Flac Rips\11 - Cuando me vaya.wav

Pre-gap length 0:00:01.00

Peak level 94.6 % Extraction speed 6.7 X Track quality 100.0 % Test CRC 029D101A Copy CRC 029D101A Accurately ripped (confidence 1) [DD0F22FC] (AR v2) Copy OK

All tracks accurately ripped

No errors occurred

End of status report

==== Log checksum BA6FC4655A25620FBA1311F0C63E77F50A1F6FEADD1E8C74138510A33AF1C940 ====
 
REM GENRE JazzREM DATE 2011REM DISCID 990CC10BREM COMMENT "ExactAudioCopy v1.0b2"PERFORMER "Perico Sambeat"TITLE "Baladas"FILE "01 - I cover the waterfront.wav" WAVE TRACK 01 AUDIO TITLE "I cover the waterfront" PERFORMER "Perico Sambeat" INDEX 01 00:00:00 TRACK 02 AUDIO TITLE "Maria de la O" PERFORMER "Perico Sambeat" INDEX 00 06:35:68FILE "02 - Maria de la O.wav" WAVE INDEX 01 00:00:00 TRACK 03 AUDIO TITLE "Please tell me now" PERFORMER "Perico Sambeat" INDEX 00 05:02:44FILE "03 - Please tell me now.wav" WAVE INDEX 01 00:00:00 TRACK 04 AUDIO TITLE "Huella del silencio" PERFORMER "Perico Sambeat" INDEX 00 05:00:24FILE "04 - Huella del silencio.wav" WAVE INDEX 01 00:00:00FILE "05 - Tu, mi delirio.wav" WAVE TRACK 05 AUDIO TITLE "Tu, mi delirio" PERFORMER "Perico Sambeat" INDEX 01 00:00:00 TRACK 06 AUDIO TITLE "Los aretes de la luna" PERFORMER "Perico Sambeat" INDEX 00 04:49:55FILE "06 - Los aretes de la luna.wav" WAVE INDEX 01 00:00:00 TRACK 07 AUDIO TITLE "Noche azul" PERFORMER "Perico Sambeat" INDEX 00 04:35:60FILE "07 - Noche azul.wav" WAVE INDEX 01 00:00:00 TRACK 08 AUDIO TITLE "Deep song" PERFORMER "Perico Sambeat" INDEX 00 05:24:65FILE "08 - Deep song.wav" WAVE INDEX 01 00:00:00 TRACK 09 AUDIO TITLE "While my lady sleeps" PERFORMER "Perico Sambeat" INDEX 00 06:33:26FILE "09 - While my lady sleeps.wav" WAVE INDEX 01 00:00:00 TRACK 10 AUDIO TITLE "Flor de perdicion" PERFORMER "Perico Sambeat" INDEX 00 05:17:30FILE "10 - Flor de perdicion.wav" WAVE INDEX 01 00:00:00 TRACK 11 AUDIO TITLE "Cuando me vaya" PERFORMER "Perico Sambeat" INDEX 00 04:08:12FILE "11 - Cuando me vaya.wav" WAVE INDEX 01 00:00:00
Perico Sambeat: Saxos alto y soprano
Bernardo Sassetti: Piano
Albert Sanz: Piano (Maria de la O and Huella de Silencio)
Javier Colina: Double bass
Borja Barrueta: Drums


Трекер:  [ 28-Янв-2012 07:09 ]

  

Скачать .torrent

Размер .torrent файла 16 KB


Размер: 386 MB
Хэш (hash) релиза: 188df133b1bfb3e50ae55c60c0e15ee9f2912656

Еще никто не оставлял запись к записи скачать торрент Perico Sambeat - Baladas - 2011, FLAC . Будь первым!

!Обратная связь