Скачать через торрент музыку Enrico Rava - Italian Ballads - 2000, WavPack бесплатно без регистрации torrent

Если у вас наблюдаются проблемы со скриншотами, переходом по ссылками, скачиванием торрентов - проблемы в блокировщике рекламы AdBlock. #хорошегоДня!


Статистика раздачи
Размер:  406 MB   |    Зарегистрирован:  5 лет 8 месяцев   |    .torrent скачан:  45 раз   |   
Раздают:  1  
   
Загрузка...
 
Автор Сообщение

Umakiro

avatar Umakiro


Enrico Rava - Italian Ballads

Жанр: Post-Bop, Modern Creative
Страна-производитель диска: Japan
Год издания диска: 2000
Издатель (лейбл): Venus Records
Номер по каталогу: TKCV-35134
Страна: Trieste, Italy
Аудиокодек: WavPack (*.wv)
Тип рипа: image+.cue
Битрейт аудио: lossless
Продолжительность: 01:11:52
Источник (релизер): Vinyll
Наличие сканов в содержимом раздачи: да
01. The Song of Gelsomina [01:52]
02. Giulietta Degli Spiriti [05:05]
03. Un Bel Di, Vedremo [05:21]
04. Il Cielo In Una Stanza [08:28]
05. Margherita [04:19]
06. Bella [04:38]
07. Un Canto [03:20]
08. Diva [07:27]
09. Torna A Surriento [05:49]
10. Senza Fine [06:05]
11. E Se Domani [02:56]
12. Due Note [04:51]
13. Stringimi Forte I Polsi [03:25]
14. More [05:59]
15. O Mio Babbino Caro [02:09]

Recorded at Farm Studio, Cessalto Treviso, Venice, Italy, 1996-03-02 - 1996-03-04
 
Exact Audio Copy V0.99 prebeta 4 from 23. January 2008

EAC extraction logfile from 1. September 2009, 10:58

Enrico Rava / Italian Ballads

Used drive : ATAPI iHAS120 6 Adapter: 1 ID: 0

Read mode : SecureUtilize accurate stream : YesDefeat audio cache : YesMake use of C2 pointers : No

Read offset correction : 6Overread into Lead-In and Lead-Out : NoFill up missing offset samples with silence : YesDelete leading and trailing silent blocks : NoNull samples used in CRC calculations : YesUsed interface : Installed external ASPI interface

Used output format : Internal WAV RoutinesSample format : 44.100 Hz; 16 Bit; Stereo

TOC of the extracted CD

Track | Start | Length | Start sector | End sector --------------------------------------------------------- 1 | 0:00.00 | 1:54.38 | 0 | 8587 2 | 1:54.38 | 5:07.19 | 8588 | 31631 3 | 7:01.57 | 5:23.37 | 31632 | 55893 4 | 12:25.19 | 8:30.03 | 55894 | 94146 5 | 20:55.22 | 4:20.67 | 94147 | 113713 6 | 25:16.14 | 4:40.34 | 113714 | 134747 7 | 29:56.48 | 3:22.41 | 134748 | 149938 8 | 33:19.14 | 7:28.48 | 149939 | 183586 9 | 40:47.62 | 5:51.42 | 183587 | 209953 10 | 46:39.29 | 6:07.01 | 209954 | 237479 11 | 52:46.30 | 2:58.00 | 237480 | 250829 12 | 55:44.30 | 4:52.46 | 250830 | 272775 13 | 60:37.01 | 3:26.49 | 272776 | 288274 14 | 64:03.50 | 6:01.39 | 288275 | 315388 15 | 70:05.14 | 2:09.19 | 315389 | 325082

Range status and errors

Selected range

Filename E:\Lossless prepare\Enrico Rava - Italian Ballads.wav

Peak level 100.0 % Range quality 99.9 % Test CRC 52DF6BDF Copy CRC 52DF6BDF Copy OK

No errors occurred

AccurateRip summary

Track 1 not present in databaseTrack 2 not present in databaseTrack 3 not present in databaseTrack 4 not present in databaseTrack 5 not present in databaseTrack 6 not present in databaseTrack 7 not present in databaseTrack 8 not present in databaseTrack 9 not present in databaseTrack 10 not present in databaseTrack 11 not present in databaseTrack 12 not present in databaseTrack 13 not present in databaseTrack 14 not present in databaseTrack 15 not present in database

None of the tracks are present in the AccurateRip database

End of status report
 
REM GENRE JazzREM DATE 1997REM DISCID D510EE0FREM COMMENT "ExactAudioCopy v0.99pb4"PERFORMER "Enrico Rava"TITLE "Italian Ballads"FILE "Enrico Rava - Italian Ballads.wav" WAVE TRACK 01 AUDIO TITLE "The Song of Gelsomina" PERFORMER "Enrico Rava" FLAGS DCP INDEX 01 00:00:00 TRACK 02 AUDIO TITLE "Giulietta Degli Spiriti" PERFORMER "Enrico Rava" FLAGS DCP INDEX 00 01:52:68 INDEX 01 01:54:38 TRACK 03 AUDIO TITLE "Un Bel Di, Vedremo" PERFORMER "Enrico Rava" FLAGS DCP INDEX 00 07:00:12 INDEX 01 07:01:57 TRACK 04 AUDIO TITLE "Il Cielo In Una Stanza" PERFORMER "Enrico Rava" FLAGS DCP INDEX 00 12:23:49 INDEX 01 12:25:19 TRACK 05 AUDIO TITLE "Margherita" PERFORMER "Enrico Rava" FLAGS DCP INDEX 00 20:53:52 INDEX 01 20:55:22 TRACK 06 AUDIO TITLE "Bella" PERFORMER "Enrico Rava" FLAGS DCP INDEX 00 25:14:44 INDEX 01 25:16:14 TRACK 07 AUDIO TITLE "Un Canto" PERFORMER "Enrico Rava" FLAGS DCP INDEX 00 29:55:03 INDEX 01 29:56:48 TRACK 08 AUDIO TITLE "Diva" PERFORMER "Enrico Rava" FLAGS DCP INDEX 00 33:17:44 INDEX 01 33:19:14 TRACK 09 AUDIO TITLE "Torna A Surriento" PERFORMER "Enrico Rava" FLAGS DCP INDEX 00 40:46:17 INDEX 01 40:47:62 TRACK 10 AUDIO TITLE "Senza Fine" PERFORMER "Enrico Rava" FLAGS DCP INDEX 00 46:37:59 INDEX 01 46:39:29 TRACK 11 AUDIO TITLE "E Se Domani" PERFORMER "Enrico Rava" FLAGS DCP INDEX 00 52:44:60 INDEX 01 52:46:30 TRACK 12 AUDIO TITLE "Due Note" PERFORMER "Enrico Rava" FLAGS DCP INDEX 00 55:42:60 INDEX 01 55:44:30 TRACK 13 AUDIO TITLE "Stringimi Forte I Polsi" PERFORMER "Enrico Rava" FLAGS DCP INDEX 00 60:35:31 INDEX 01 60:37:01 TRACK 14 AUDIO TITLE "More" PERFORMER "Enrico Rava" FLAGS DCP INDEX 00 64:02:05 INDEX 01 64:03:50 TRACK 15 AUDIO TITLE "O Mio Babbino Caro" PERFORMER "Enrico Rava" FLAGS DCP INDEX 00 70:03:44 INDEX 01 70:05:14
Enrico Rava (trumpet)
Domenico Caliri (guitars)
Giovanni Maier (double bass)
U.T. Ghandi (drums, percussion)
Barbara Casini (vocal)
Richard Galliano (accordion)


Трекер:  [ 28-Янв-2012 07:09 ]

  

Скачать .torrent

Размер .torrent файла 17 KB


Размер: 406 MB
Хэш (hash) релиза: f9f9b6d08cbfc8b8e71397b8aa5b8debff886733

Еще никто не оставлял запись к записи скачать торрент Enrico Rava - Italian Ballads - 2000, WavPack . Будь первым!

!Обратная связь