Скачать через торрент музыку Julia Hulsmann Trio - Imprint - 2011, FLAC бесплатно без регистрации torrent

Если у вас наблюдаются проблемы со скриншотами, переходом по ссылками, скачиванием торрентов - проблемы в блокировщике рекламы AdBlock. #хорошегоДня!


Статистика раздачи
Размер:  322 MB   |    Зарегистрирован:  5 лет 8 месяцев   |    .torrent скачан:  35 раз   |   
Раздают:  1  
   
Загрузка...
 
Автор Сообщение

Umakiro

avatar Umakiro


Julia Hulsmann Trio - Imprint
Жанр: ecm, сontemporary jazz
Год издания диска: 2011
Издатель (лейбл): ecm
Номер по каталогу: 2177
Аудиокодек: FLAC (*.flac)
Тип рипа: tracks+.cue
Битрейт аудио: lossless
Продолжительность: 01:02:08
Источник (релизер): caaok
Наличие сканов в содержимом раздачи: да
Треклист:
1. Rond Point
2. Grand Canyon
3. A Light Left On
4. Juni
5. Storm In A Teacup
6. (Go And Open) The Door
7. Kauf dir einen bunten Luftballon
8. Ritual
9. Lulu’s Paradise
10. Ulmenwall
11. Zahlen bitte
12. Who’s Next
Julia Hülsmann (piano)
Marc Muellbauer (double-bass)
Heinrich Köbberling (drums)
 
Exact Audio Copy V1.0 beta 2 from 29. April 2011

EAC extraction logfile from 23. June 2011, 14:38

Julia Hülsmann Trio / Imprint

Used drive : HL-DT-STDVDRAM GH24LS50 Adapter: 1 ID: 1

Read mode : SecureUtilize accurate stream : YesDefeat audio cache : YesMake use of C2 pointers : No

Read offset correction : 667Overread into Lead-In and Lead-Out : NoFill up missing offset samples with silence : YesDelete leading and trailing silent blocks : NoNull samples used in CRC calculations : YesUsed interface : Native Win32 interface for Win NT & 2000Gap handling : Appended to previous track

Used output format : User Defined EncoderSelected bitrate : 1024 kBit/sQuality : HighAdd ID3 tag : NoCommand line compressor : C:\Program Files (x86)\FLAC\flac.exeAdditional command line options : -8 -V -T "ARTIST=%artist%" -T "TITLE=%title%" -T "ALBUM=%albumtitle%" -T "DATE=%year%" -T "TRACKNUMBER=%tracknr%" -T "GENRE=%genre%" -T "PERFORMER=%albuminterpret%" -T "COMPOSER=%composer%" %haslyrics%--tag-from-file=LYRICS

TOC of the extracted CD

Track | Start | Length | Start sector | End sector --------------------------------------------------------- 1 | 0:00.00 | 4:12.32 | 0 | 18931 2 | 4:12.32 | 6:27.20 | 18932 | 47976 3 | 10:39.52 | 5:43.37 | 47977 | 73738 4 | 16:23.14 | 4:11.69 | 73739 | 92632 5 | 20:35.08 | 4:14.60 | 92633 | 111742 6 | 24:49.68 | 7:14.65 | 111743 | 144357 7 | 32:04.58 | 3:34.03 | 144358 | 160410 8 | 35:38.61 | 5:25.36 | 160411 | 184821 9 | 41:04.22 | 4:56.23 | 184822 | 207044 10 | 46:00.45 | 6:08.54 | 207045 | 234698 11 | 52:09.24 | 6:16.19 | 234699 | 262917 12 | 58:25.43 | 4:15.28 | 262918 | 282070

Track 1

Filename D:\EAC Rips\Julia Hulsmann Trio - Imprint (2011) [FLAC] {ECM 2177}\01 - Rond Point.wav

Pre-gap length 0:00:02.00

Peak level 51.1 % Extraction speed 1.0 X Track quality 100.0 % Test CRC 3DC71590 Copy CRC 3DC71590 Accurately ripped (confidence 10) [3EB29221] (AR v2) Copy OK

Track 2

Filename D:\EAC Rips\Julia Hulsmann Trio - Imprint (2011) [FLAC] {ECM 2177}\02 - Grand Canyon.wav

Pre-gap length 0:00:05.00

Peak level 96.7 % Extraction speed 1.3 X Track quality 100.0 % Test CRC B12E5D07 Copy CRC B12E5D07 Accurately ripped (confidence 10) [C6BA70F1] (AR v2) Copy OK

Track 3

Filename D:\EAC Rips\Julia Hulsmann Trio - Imprint (2011) [FLAC] {ECM 2177}\03 - A Light Left On.wav

Pre-gap length 0:00:03.38

Peak level 80.9 % Extraction speed 1.4 X Track quality 100.0 % Test CRC 30549A88 Copy CRC 30549A88 Accurately ripped (confidence 10) [F1CC64B3] (AR v2) Copy OK

Track 4

Filename D:\EAC Rips\Julia Hulsmann Trio - Imprint (2011) [FLAC] {ECM 2177}\04 - Juni.wav

Pre-gap length 0:00:03.40

Peak level 64.4 % Extraction speed 1.4 X Track quality 100.0 % Test CRC 2C15F421 Copy CRC 2C15F421 Accurately ripped (confidence 10) [788C89B7] (AR v2) Copy OK

Track 5

Filename D:\EAC Rips\Julia Hulsmann Trio - Imprint (2011) [FLAC] {ECM 2177}\05 - Storm In A Teacup.wav

Pre-gap length 0:00:03.00

Peak level 51.8 % Extraction speed 1.6 X Track quality 100.0 % Test CRC 07808DB3 Copy CRC 07808DB3 Accurately ripped (confidence 10) [56CFF2DF] (AR v2) Copy OK

Track 6

Filename D:\EAC Rips\Julia Hulsmann Trio - Imprint (2011) [FLAC] {ECM 2177}\06 - (Go and Open) The Door.wav

Pre-gap length 0:00:03.38

Peak level 100.0 % Extraction speed 1.8 X Track quality 100.0 % Test CRC EFD72D19 Copy CRC EFD72D19 Accurately ripped (confidence 10) [1B19CE84] (AR v2) Copy OK

Track 7

Filename D:\EAC Rips\Julia Hulsmann Trio - Imprint (2011) [FLAC] {ECM 2177}\07 - Kauf dir einin bunten Luftballon.wav

Pre-gap length 0:00:01.98

Peak level 40.3 % Extraction speed 1.7 X Track quality 100.0 % Test CRC 697455E6 Copy CRC 697455E6 Accurately ripped (confidence 10) [23B45A2F] (AR v2) Copy OK

Track 8

Filename D:\EAC Rips\Julia Hulsmann Trio - Imprint (2011) [FLAC] {ECM 2177}\08 - Ritual.wav

Pre-gap length 0:00:03.40

Peak level 98.2 % Extraction speed 1.9 X Track quality 100.0 % Test CRC 6EA2832F Copy CRC 6EA2832F Accurately ripped (confidence 10) [3554AD10] (AR v2) Copy OK

Track 9

Filename D:\EAC Rips\Julia Hulsmann Trio - Imprint (2011) [FLAC] {ECM 2177}\09 - Lulu's Paradise.wav

Pre-gap length 0:00:03.00

Peak level 75.3 % Extraction speed 2.0 X Track quality 100.0 % Test CRC 57B21BDE Copy CRC 57B21BDE Accurately ripped (confidence 10) [BE8CEC5F] (AR v2) Copy OK

Track 10

Filename D:\EAC Rips\Julia Hulsmann Trio - Imprint (2011) [FLAC] {ECM 2177}\10 - Ulmenwall.wav

Pre-gap length 0:00:02.00

Peak level 97.6 % Extraction speed 2.1 X Track quality 100.0 % Test CRC CEC6EB63 Copy CRC CEC6EB63 Accurately ripped (confidence 10) [3AA36A7B] (AR v2) Copy OK

Track 11

Filename D:\EAC Rips\Julia Hulsmann Trio - Imprint (2011) [FLAC] {ECM 2177}\11 - Zahlen Bitte.wav

Pre-gap length 0:00:01.98

Peak level 98.0 % Extraction speed 2.2 X Track quality 100.0 % Test CRC 93563B31 Copy CRC 93563B31 Accurately ripped (confidence 10) [3017EFEF] (AR v2) Copy OK

Track 12

Filename D:\EAC Rips\Julia Hulsmann Trio - Imprint (2011) [FLAC] {ECM 2177}\12 - Who's Next.wav

Pre-gap length 0:00:01.98

Peak level 70.1 % Extraction speed 2.2 X Track quality 100.0 % Test CRC 7DF3ACB8 Copy CRC 7DF3ACB8 Accurately ripped (confidence 10) [DF81A04C] (AR v2) Copy OK

All tracks accurately ripped

No errors occurred

End of status report

---- CUETools DB Plugin V2.1.2

[CTDB TOCID: b.XZmHcXzlKPIkMNMDh1E3pxNoI-] disk not present in database, Submit result: b.XZmHcXzlKPIkMNMDh1E3pxNoI- has been uploaded

==== Log checksum BB352CCDD9EAA9B49AA3951BFBFE5EE90E2230A7683C49FC2B2B8EC3A13EB14E ====
 
REM GENRE JazzREM DATE 2011REM DISCID 9D0EB00CREM COMMENT "ExactAudioCopy v1.0b2"CATALOG 0602527442624PERFORMER "Julia Hьlsmann Trio"TITLE "Imprint"FILE "01 - Rond Point.wav" WAVE TRACK 01 AUDIO TITLE "Rond Point" PERFORMER "Julia Hьlsmann Trio" ISRC DEB331017701 INDEX 01 00:00:00 TRACK 02 AUDIO TITLE "Grand Canyon" PERFORMER "Julia Hьlsmann Trio" ISRC DEB331017702 INDEX 00 04:07:32FILE "02 - Grand Canyon.wav" WAVE INDEX 01 00:00:00 TRACK 03 AUDIO TITLE "A Light Left On" PERFORMER "Julia Hьlsmann Trio" ISRC DEB331017703 INDEX 00 06:23:66FILE "03 - A Light Left On.wav" WAVE INDEX 01 00:00:00 TRACK 04 AUDIO TITLE "Juni" PERFORMER "Julia Hьlsmann Trio" ISRC DEB331017704 INDEX 00 05:40:07FILE "04 - Juni.wav" WAVE INDEX 01 00:00:00 TRACK 05 AUDIO TITLE "Storm In A Teacup" PERFORMER "Julia Hьlsmann Trio" ISRC DEB331017705 INDEX 00 04:08:69FILE "05 - Storm In A Teacup.wav" WAVE INDEX 01 00:00:00 TRACK 06 AUDIO TITLE "(Go and Open) The Door" PERFORMER "Julia Hьlsmann Trio" ISRC DEB331017706 INDEX 00 04:11:31FILE "06 - (Go and Open) The Door.wav" WAVE INDEX 01 00:00:00 TRACK 07 AUDIO TITLE "Kauf dir einin bunten Luftballon" PERFORMER "Julia Hьlsmann Trio" ISRC DEB331017707 INDEX 00 07:12:66FILE "07 - Kauf dir einin bunten Luftballon.wav" WAVE INDEX 01 00:00:00 TRACK 08 AUDIO TITLE "Ritual" PERFORMER "Julia Hьlsmann Trio" ISRC DEB331017708 INDEX 00 03:30:48FILE "08 - Ritual.wav" WAVE INDEX 01 00:00:00 TRACK 09 AUDIO TITLE "Lulu's Paradise" PERFORMER "Julia Hьlsmann Trio" ISRC DEB331017709 INDEX 00 05:22:36FILE "09 - Lulu's Paradise.wav" WAVE INDEX 01 00:00:00 TRACK 10 AUDIO TITLE "Ulmenwall" PERFORMER "Julia Hьlsmann Trio" ISRC DEB331017710 INDEX 00 04:54:23FILE "10 - Ulmenwall.wav" WAVE INDEX 01 00:00:00 TRACK 11 AUDIO TITLE "Zahlen Bitte" PERFORMER "Julia Hьlsmann Trio" ISRC DEB331017711 INDEX 00 06:06:55FILE "11 - Zahlen Bitte.wav" WAVE INDEX 01 00:00:00 TRACK 12 AUDIO TITLE "Who's Next" PERFORMER "Julia Hьlsmann Trio" ISRC DEB331017712 INDEX 00 06:14:20FILE "12 - Who's Next.wav" WAVE INDEX 01 00:00:00
Imprint is the second ECM album by Germany’s Julia Hülsmann Trio, and a follow-up to the critically-lauded The End of a Summer, the group’s ECM debut released in 2008. Both as a player and writer Hülsmann conveys a sense of poetic compression. Her themes stand out in stark relief, as if stamped or printed into the surrounding improvisation, and are highly memorable. She says: “My music is all about melody. It’s that simple”
This is a group with a strong identity of its own, developed steadily since the trio’s founding in 1997. Hülsmann’s well-crafted melodies – drawing inspiration from classical music and pop as well as the jazz tradition – establish the atmospheric climate of the music. Bassist Marc Muellbauer and drummer Heinrich Köbberling also write for the band, the pieces they bring in adher to Hülsman’s emphasis on the centrality of melody
Their communicative power has been felt especially in Germany, where the group has a strong following. Their pre-ECM 2001 album “Scattering Poems” sold more than 10,000 copies in Germany and won them a German Jazz Award. Subsequent exposure on ECM has brought the trio’s music to the world.


Трекер:  [ 28-Янв-2012 07:08 ]

  

Скачать .torrent

Размер .torrent файла 14 KB


Размер: 322 MB
Хэш (hash) релиза: 0052dee13ee6bac705b1f3385593ff0de4672842

Еще никто не оставлял запись к записи скачать торрент Julia Hulsmann Trio - Imprint - 2011, FLAC . Будь первым!

!Обратная связь