Скачать через торрент музыку John Patitucci - Remembrance - 2009, FLAC бесплатно без регистрации torrent

Если у вас наблюдаются проблемы со скриншотами, переходом по ссылками, скачиванием торрентов - проблемы в блокировщике рекламы AdBlock. #хорошегоДня!


Статистика раздачи
Размер:  342 MB   |    Зарегистрирован:  5 лет 8 месяцев   |    .torrent скачан:  38 раз   |   
Раздают:  1  
   
Загрузка...
 
Автор Сообщение

Umakiro

avatar Umakiro


John Patitucci - Remembrance

Жанр: Post Bop/Modern Jazz
Год выпуска диска: 2009
Производитель диска: Concord Music Group, USA
Аудио кодек: FLAC
Тип рипа: image+.cue
Битрейт аудио: lossless
Продолжительность: 65:55
Трэклист:
1. Monk/Trane 7:15
2. Messaien’s 5:29
3. Sonny Side 7:26
4. Meditations 5:03
5. Mali 7:16
6. Scenes From An Opera 5:23
7. Blues For Freddie 5:21
8. Safari 6:09
9. Joe Hen 7:45
10. Play Ball 6:45
11. Remembrance 1:54
Доп. информация:

John Patitucci Trio:

John Patitucci – acoustic bass, 6-string electric bass, 6-string electric piccolo bass
Joe Lovano – tenor saxophone, alto clarinet
Brian Blade – drums
With: Sashi Patitucci – cello, Rogerio Boccato - percussion

Cобственный рип, сканы в комплекте.
Exact Audio Copy V0.99 prebeta 5 from 4. May 2009

EAC extraction logfile from 7. September 2009, 10:40

John Patitucci / Remembrance

Used drive : HL-DT-STDVD-RAM GSA-H55N Adapter: 4 ID: 0

Read mode : Secure
Utilize accurate stream : Yes
Defeat audio cache : Yes
Make use of C2 pointers : No

Read offset correction : 102
Overread into Lead-In and Lead-Out : No
Fill up missing offset samples with silence : Yes
Delete leading and trailing silent blocks : No
Null samples used in CRC calculations : Yes
Used interface : Native Win32 interface for Win NT & 2000

Used output format : User Defined Encoder
Selected bitrate : 768 kBit/s
Quality : High
Add ID3 tag : No
Command line compressor : C:\Program Files\Exact Audio Copy\FLAC\FLAC.EXE
Additional command line options : -8 -V -T "ARTIST=%a" -T "TITLE=%t" -T "ALBUM=%g" -T "DATE=%y" -T "TRACKNUMBER=%n" -T "GENRE=%m" -T "COMMENT=%e" %s -o %d

TOC of the extracted CD

Track | Start | Length | Start sector | End sector
---------------------------------------------------------
1 | 0:00.00 | 7:14.69 | 0 | 32618
2 | 7:14.69 | 5:28.45 | 32619 | 57263
3 | 12:43.39 | 7:27.03 | 57264 | 90791
4 | 20:10.42 | 5:04.25 | 90792 | 113616
5 | 25:14.67 | 7:16.30 | 113617 | 146346
6 | 32:31.22 | 5:23.43 | 146347 | 170614
7 | 37:54.65 | 5:24.27 | 170615 | 194941
8 | 43:19.17 | 6:08.66 | 194942 | 222607
9 | 49:28.08 | 7:44.53 | 222608 | 257460
10 | 57:12.61 | 6:47.04 | 257461 | 287989
11 | 63:59.65 | 1:54.08 | 287990 | 296547

Range status and errors

Selected range

Filename D:\Олег\Мои раздачи\John Patitucci - Remembrance.wav

Peak level 98.8 %
Range quality 99.9 %
Test CRC F11214F2
Copy CRC F11214F2
Copy OK

No errors occurred

End of status report


Трекер:  [ 28-Янв-2012 07:08 ]

  

Скачать .torrent

Размер .torrent файла 14 KB


Размер: 342 MB
Хэш (hash) релиза: d8826cfb7ac007ae861325325ac05853757c1194

Еще никто не оставлял запись к записи скачать торрент John Patitucci - Remembrance - 2009, FLAC . Будь первым!

!Обратная связь