Скачать через торрент музыку John Patitucci - Now - 1998, FLAC бесплатно без регистрации torrent

Если у вас наблюдаются проблемы со скриншотами, переходом по ссылками, скачиванием торрентов - проблемы в блокировщике рекламы AdBlock. #хорошегоДня!


Статистика раздачи
Размер:  415 MB   |    Зарегистрирован:  5 лет 8 месяцев   |    .torrent скачан:  34 раза   |   
Раздают:  1  
   
Загрузка...
 
Автор Сообщение

Umakiro

avatar Umakiro


John Patitucci - Now

Жанр: Contemporary Jazz, Post-Bop
Год выпуска диска: 1998
Производитель диска: Россия
Аудио кодек: FLAC
Тип рипа: image+.cue
Битрейт аудио: lossless
Продолжительность: 70:24
Происxождение рипа: Собственный рип из личной коллекции

Трэклист:
1. Now (Patitucci) 9:09
2. Grace (Patitucci) 8:54
3. Out Of The Mouths Of Babes (Patitucci) 6:14
4. Hope (Patitucci) 6:03
5. Labor Day (Patitucci) 9:30
6. Espresso (Patitucci) 8:58
7. Forgotten But Not Gone (Patitucci) 7:38
8. Search For Peace (Tyner) 5:25
9. Giant Steps (Coltrane) 4:28
10. Miya (Patitucci) 3:51

Доп. информация:
Исполнители:
John Patitucci - Bass
Michael Brecker - Tenor Saxophone
Chris Potter - Tenor Saxophone
John Scofield - Guitar
Bill Stewart - Drums
Exact Audio Copy V0.99 prebeta 4 from 23. January 2008

Отчёт EAC об извлечении, выполненном 18. мая 2010, 20:01

John Patitucci / Now

Дисковод: ASUS DRW-20B1LT Adapter: 4 ID: 0

Режим чтения : Достоверность
Использование точного потока : Да
Отключение кэша аудио : Да
Использование указателей C2 : Нет

Коррекция смещения при чтении : 6
Способность читать области Lead-in и Lead-out : Нет
Заполнение пропущенных сэмплов тишиной : Да
Удаление блоков с тишиной в начале и конце : Нет
При вычислениях CRC использовались нулевые сэмплы : Да
Интерфейс : Встроенный Win32-интерфейс для Win NT/2000

Выходной формат : Пользовательский кодировщик
Выбранный битрейт : 768 kBit/s
Качество : Высокий
Добавление ID3-тэга : Нет
Утилита сжатия : D:\Program Files\Exact Audio Copy\Flac\Flac.exe
Дополнительные параметры : -8 --delete-input-file -o "D:\CDImage.flac" -V %s

TOC извлечённого CD

Трек | Старт | Длительность | Начальный сектор | Конечный сектор
---------------------------------------------------------------------
1 | 0:00.00 | 9:10.30 | 0 | 41279
2 | 9:10.30 | 8:55.10 | 41280 | 81414
3 | 18:05.40 | 6:16.30 | 81415 | 109644
4 | 24:21.70 | 6:03.10 | 109645 | 136879
5 | 30:25.05 | 9:29.60 | 136880 | 179614
6 | 39:54.65 | 8:59.25 | 179615 | 220064
7 | 48:54.15 | 7:39.52 | 220065 | 254541
8 | 56:33.67 | 5:26.35 | 254542 | 279026
9 | 62:00.27 | 4:30.53 | 279027 | 299329
10 | 66:31.05 | 3:51.27 | 299330 | 316681

Характеристики диапазона извлечения и сообщения об ошибках

Выбранный диапазон

Имя файла D:\John Patitucci - Now.wav

Пиковый уровень 99.2 %
Качество диапазона 100.0 %
CRC теста 653EADA5
CRC копии 653EADA5
Копирование... OK

Ошибок не произошло

AccurateRip: сводка

Трек 1 точность не определена (достоверность 11) [468DBEE8], AccurateRip вернул [BADAD7A6]
Трек 2 точность не определена (достоверность 12) [1205A49F], AccurateRip вернул [305C7CCF]
Трек 3 точность не определена (достоверность 12) [83455933], AccurateRip вернул [B101779C]
Трек 4 точность не определена (достоверность 12) [07644122], AccurateRip вернул [8F9C2450]
Трек 5 точность не определена (достоверность 12) [7A2B0283], AccurateRip вернул [F090C89A]
Трек 6 точность не определена (достоверность 12) [F85A9CB0], AccurateRip вернул [316C674E]
Трек 7 точность не определена (достоверность 13) [C44E44BA], AccurateRip вернул [2D05D333]
Трек 8 точность не определена (достоверность 13) [4C8C0197], AccurateRip вернул [2A5CF262]
Трек 9 точность не определена (достоверность 12) [0321CA01], AccurateRip вернул [4011B518]
Трек 10 точность не определена (достоверность 13) [7880582C], AccurateRip вернул [96D3CDD4]

Ни один трек не прошёл проверки на точность
В вашей базе может быть иной вариант штамповки диска

Конец отчёта


Трекер:  [ 28-Янв-2012 07:06 ]

  

Скачать .torrent

Размер .torrent файла 33 KB


Размер: 415 MB
Хэш (hash) релиза: 505a68547c0f84a838cff938a6c7c239338cf8ce

Еще никто не оставлял запись к записи скачать торрент John Patitucci - Now - 1998, FLAC . Будь первым!

!Обратная связь