Скачать через торрент музыку Steve Wilson - Generations - 1998, APE бесплатно без регистрации torrent

Если у вас наблюдаются проблемы со скриншотами, переходом по ссылками, скачиванием торрентов - проблемы в блокировщике рекламы AdBlock. #хорошегоДня!


Статистика раздачи
Размер:  406 MB   |    Зарегистрирован:  5 лет 8 месяцев   |    .torrent скачан:  27 раз   |   
Раздают:  1  
   
Загрузка...
 
Автор Сообщение

Umakiro

avatar Umakiro


Steve Wilson - Generations

Жанр: Hard Bop, Post-Bop
Страна-производитель диска: USA
Год издания диска: 1998
Издатель (лейбл): Stretch
Номер по каталогу: SCD-9019-2
Страна: USA Hampton, Virginia
Аудиокодек: APE (*.ape)
Тип рипа: image+.cue
Битрейт аудио: lossless
Продолжительность: 01:03:39
Источник (релизер): dreadbull
Наличие сканов в содержимом раздачи: да
01. Small Portion [06:11]
02. A Joyful Noise (For JW) [09:03]
03. Sisko [08:41]
04. Leanin' & Preenin' [08:07]
05. Chrysalis [06:07]
06. Sweet And Lovely [05:59]
07. Wait [06:30]
08. Trapaceria [07:25]
09. Chelsea Bridge [05:36]

Recording information: Avatar Studios, New York, NY.
 
EAC extraction logfile from 11. January 2011, 18:50 for CDSteve Wilson / Generations

Used drive : ASUS DRW-22B2L Adapter: 0 ID: 1Read mode : Secure with NO C2, accurate stream, disable cacheRead offset correction : 6Overread into Lead-In and Lead-Out : No

Used output format : Internal WAV Routines 44.100 Hz; 16 Bit; Stereo

Other options : Fill up missing offset samples with silence : Yes Delete leading and trailing silent blocks : No Installed external ASPI interface

Range status and errorsSelected range Filename D:\Donkey Files\Steve Wilson - Generations (1998, Stretch) [eac-ape-scans] byDrBull\CDImage.wav

Peak level 99.8 % Range quality 100.0 % CRC 210280D5 Copy OK

No errors occured

End of status report
 
CATALOG 0000000000000PERFORMER "Steve Wilson"TITLE "Generations"FILE "CDImage.wav" WAVE TRACK 01 AUDIO TITLE "Small Portion" PERFORMER "Steve Wilson" INDEX 01 00:00:00 TRACK 02 AUDIO TITLE "A Joyful Noise (For JW)" PERFORMER "Steve Wilson" INDEX 00 06:11:25 INDEX 01 06:12:65 TRACK 03 AUDIO TITLE "Sisko" PERFORMER "Steve Wilson" INDEX 00 15:14:55 INDEX 01 15:15:70 TRACK 04 AUDIO TITLE "Leanin' & Preenin'" PERFORMER "Steve Wilson" INDEX 00 23:55:33 INDEX 01 23:55:35 TRACK 05 AUDIO TITLE "Chrysalis" PERFORMER "Steve Wilson" INDEX 00 32:02:55 INDEX 01 32:03:32 TRACK 06 AUDIO TITLE "Sweet And Lovely" PERFORMER "Steve Wilson" INDEX 00 38:09:28 INDEX 01 38:09:30 TRACK 07 AUDIO TITLE "Wait" PERFORMER "Steve Wilson" INDEX 00 44:08:20 INDEX 01 44:10:67 TRACK 08 AUDIO TITLE "Trapaceria" PERFORMER "Steve Wilson" INDEX 00 50:38:50 INDEX 01 50:39:32 TRACK 09 AUDIO TITLE "Chelsea Bridge" PERFORMER "Steve Wilson" INDEX 00 58:03:23 INDEX 01 58:06:47
Steve Wilson (alto & soprano saxophones, flute)
Mulgrew Miller (piano)
Ray Drummond (bass)
Ben Riley (drums)


Трекер:  [ 28-Янв-2012 07:06 ]

  

Скачать .torrent

Размер .torrent файла 16 KB


Размер: 406 MB
Хэш (hash) релиза: 77ff6e6266eae2296887c5b045f752a58c88afc5

Еще никто не оставлял запись к записи скачать торрент Steve Wilson - Generations - 1998, APE . Будь первым!

!Обратная связь