Скачать через торрент музыку Jimmy Pritchard - Goin Down 9 - 2010, FLAC бесплатно без регистрации torrent

Если у вас наблюдаются проблемы со скриншотами, переходом по ссылками, скачиванием торрентов - проблемы в блокировщике рекламы AdBlock. #хорошегоДня!


Статистика раздачи
Размер:  227 MB   |    Зарегистрирован:  5 лет 8 месяцев   |    .torrent скачан:  32 раза   |   
Раздают:  1  
   
Загрузка...
 
Автор Сообщение

Umakiro

avatar Umakiro


Jimmy Pritchard - Goin Down 9
Жанр
: East Coast Blues
Страна-производитель диска: USA
Год издания диска: 2010
Аудиокодек: FLAC (*.flac)
Тип рипа: image+.cue
Битрейт аудио: lossless
Продолжительность: 38:26
Источник (релизер): ©СЁРФ-Маrаtones aka izia1956
Наличие сканов в содержимом раздачи: да
01. Goin Down 9 (3:58)
02. You Don't Know (4:34)
03. All Broke Up About Love (4:24)
04. Cheeze Wit (2:34)
05. Go No Futher (4:11)
06. By Myside (7:02)
07. Go And Get My Beer (2:15)
08. Take My Lovin (2:58)
09. Who's Fool'in Who (3:31)
10. Ain't Nobody Here But Me (2:55)

 
Exact Audio Copy V0.99 prebeta 4 from 23. January 2008

Отчёт EAC об извлечении, выполненном 20. августа 2011, 9:44

Jimmy Pritchard / Goin Down 9

Дисковод: PLEXTOR DVDR PX-880SA Adapter: 1 ID: 1

Режим чтения : ДостоверностьИспользование точного потока : ДаОтключение кэша аудио : ДаИспользование указателей C2 : Нет

Коррекция смещения при чтении : 6Способность читать области Lead-in и Lead-out : НетЗаполнение пропущенных сэмплов тишиной : ДаУдаление блоков с тишиной в начале и конце : НетПри вычислениях CRC использовались нулевые сэмплы : ДаИнтерфейс : Встроенный Win32-интерфейс для Win NT/2000

Выходной формат : Пользовательский кодировщикВыбранный битрейт : 1024 kBit/sКачество : ВысокийДобавление ID3-тэга : НетУтилита сжатия : C:\Program Files\Exact Audio Copy\FLAC\FLAC.EXEДополнительные параметры : -6 -V -T "ARTIST=%a" -T "TITLE=%t" -T "ALBUM=%g" -T "DATE=%y" -T "TRACKNUMBER=%n" -T "GENRE=%m" -T "COMMENT=%e" %s -o %d

TOC извлечённого CD

Трек | Старт | Длительность | Начальный сектор | Конечный сектор --------------------------------------------------------------------- 1 | 0:00.00 | 3:58.03 | 0 | 17852 2 | 3:58.03 | 4:34.44 | 17853 | 38446 3 | 8:32.47 | 4:24.34 | 38447 | 58280 4 | 12:57.06 | 2:34.17 | 58281 | 69847 5 | 15:31.23 | 4:11.49 | 69848 | 88721 6 | 19:42.72 | 7:02.24 | 88722 | 120395 7 | 26:45.21 | 2:15.07 | 120396 | 130527 8 | 29:00.28 | 2:58.50 | 130528 | 143927 9 | 31:59.03 | 3:31.44 | 143928 | 159796 10 | 35:30.47 | 2:55.30 | 159797 | 172951

Характеристики диапазона извлечения и сообщения об ошибках

Выбранный диапазон

Имя файла J:\BitComet\Jimmy Pritchard - Goin Down 9(2010)(flac)\Jimmy Pritchard - Goin Down 9.wav

Пиковый уровень 94.3 % Качество диапазона 100.0 % CRC теста 741DE416 CRC копии 741DE416 Копирование... OK

Ошибок не произошло

AccurateRip: сводка

Трек 1 нет в базе данныхТрек 2 нет в базе данныхТрек 3 нет в базе данныхТрек 4 нет в базе данныхТрек 5 нет в базе данныхТрек 6 нет в базе данныхТрек 7 нет в базе данныхТрек 8 нет в базе данныхТрек 9 нет в базе данныхТрек 10 нет в базе данных

Ни одного трека нет в базе AccurateRip

Конец отчёта
Jimmy started playing Bass professionally in 1980 with the band Masque featuring guitar wiz Vinnie Moore. Moving to Florida in 1986, he took up with Easy Excess for 2 years on non-stop gigging. Wanting to pursue Blues as his main music, Jimmy returned to the Tri-State are in 1989. He picked up a gig with Lisa Jack & The Reputations and this led to many years of work backing up Regional Acts such as Sister Blue, Jim McCarthy, The Homewreckers & Roni & The Eldorado's. In 1996, he hit the road with Blues Great Sonny Rhodes touring Europe, Canada & the U.S. It was on this tour that he met and played with many Great Bluesmen including the Legendary Frankie Lee, and would go on to back up the singer on some East Coast dates. Returning in 1997, he recorded with Randy Lippincott & began backing up Randy as well as Georgie Bonds & The Blueskeepers and Arkansas' own Lonnie Shields. It was at this time that Jimmy recorded & backed Delaware artist Socco, & was touched by his sparks of creativity. Jimmy stays busy with these various artist ,even backing L.A.'s Arthur Adams at the 2000 Pocono Blues Fest and Chris Cain at the 2001 Riverfront Blues Fest. In 2003 Jimmy hit the road with Big Jack Johnson touring the U.S. & Canada, one of the kindest artist in the blues. Joining up with Roger Girke in 2004, Jimmy toured with Roger supporting the album ''My Baby Loves that Stuff" enjoying many powerful nights of music. Since 2003, Jimmy has played & recorded with harmonica ace Mikey JR.This young artist is turning many heads on the blues scene. He also started backing Richard Ray Farrell & He's been hosting the blues jam Every Tuesday @ Warmdaddys in Philly since the Late 90's with The Randy Lippincott Band . Jimmy recorded his own record of originals "Shopping for the Blues." It has been well received and was nominated by the North Jersey Blues & Jazz Society for The Blues Foundation C.D competition in 2007. Jimmy recently finished tracking for a new C.D from Lonnie Shields "KEEPER OF THE BLUES" & backed Gary Allegretto @ The Riverfront Blues Fest in support of His record " Many Shades of Blue ".Since 2008 Jimmy's been playing with Philly's own Zydeco-a-go-go ''Letting the Good Times Roll'' "It's been my great pleasure to play behind all these Great Blues Artists. I am truly blessed. THANK YOU ALL SO MUCH!" - Jimmy Pritchard SELECTED DISCOGRAPHY SONNY RHODES "BORN TO BE BLUE" KINGSNAKE RECORDS SONNY RHODES " TEXAS FENDER BENDER" GREATER PLANET RECORDS GEORGIE BONDS "SOMETIMES I WONDER" &"LIVE" GB RECORDS RANDY LIPPINCOTT "ARTISTE" INDEPENDENT RANDY LIPPINCOTT "SOUL MONKEY" GREATER PLANET RECORDS ROGER GIRKE "MY BABY LOVES THAT STUFF" TELETONE RECORDS SOCCO "CALL ME BUSTER BROWN" INDEPENDENT MIKEY JR. " LOOK INSIDE MY POCKET" 8TH TRAIN RECORDS MIKEY JR. " MIKEY LIKES IT" 8TH TRAIN RECORDS LONNIE SHIELDS " KEEPER OF TH BLUES" GREATER PLANET RECORDS MIKEY JR "POCKET FULL OF MONEY" 8TH TRIAN RECORDS RANDY LIPPINCOTT "CROSSEYED FISF & WAVEY GRAVEY"
Доп. информация: Чем дальше тем больше убеждаюсь как мало знаем мы о блюзе
и исполнителях блюза - малоизвестных, либо вообще неизвестных...?

Рип сделан собственноручно.
Сканы в папке.

Ознакомиться (прослушать) можно здесь

Рип от ©СЁРФ-Маrаtones aka izia1956

Трекер:  [ 27-Янв-2012 19:44 ]

  

Скачать .torrent

Размер .torrent файла 18 KB


Размер: 227 MB
Хэш (hash) релиза: 36b21dc6a13df82c09bd6b67ab3ab30a992d5936

Еще никто не оставлял запись к записи скачать торрент Jimmy Pritchard - Goin Down 9 - 2010, FLAC . Будь первым!

!Обратная связь