Скачать через торрент музыку Set Em Up Joe - Set Em Up Joe - 1999, FLAC бесплатно без регистрации torrent

Если у вас наблюдаются проблемы со скриншотами, переходом по ссылками, скачиванием торрентов - проблемы в блокировщике рекламы AdBlock. #хорошегоДня!


Статистика раздачи
Размер:  283 MB   |    Зарегистрирован:  5 лет 8 месяцев   |    .torrent скачан:  28 раз   |   
Раздают:  1  
   
Загрузка...
 
Автор Сообщение

Umakiro

avatar Umakiro


Set 'Em Up Joe

Set 'Em Up Joe
Жанр: Swing, Spy Jazz, Big Band
Страна-производитель диска: USA
Год издания диска: 1999
Издатель (лейбл): Daddy-O/Royalty Records
Номер по каталогу: 79405-80203-2
Аудиокодек: FLAC (*.flac)
Тип рипа: image+.cue
Битрейт аудио: lossless
Продолжительность: 43:51
Источник (релизер): ©СЁРФ-Маrаtones aka izia1956
Наличие сканов в содержимом раздачи: да
01. Zoot Suit (3:07)
02. (Let Me) Cater Your Next Affair (3:46)
03. She Can't Dance (2:26)
04. Gino Goes Wild (3:47)
05. Old Life Back (4:33)
06. Gasoline (3:53)
07. I Wanna Have Fun (2:10)
08. Cake & Eat It Too (3:25)
09. Cool World (3:44)
10. Hit Me With A Hotdog' (4:56)
11. Win Some, Lose Some (2:31)
12. Brooklyn Hearted (5:38)

 
Exact Audio Copy V0.99 prebeta 4 from 23. January 2008

Отчёт EAC об извлечении, выполненном 17. сентября 2011, 13:07

Set 'Em Up Joe / Set 'Em Up Joe

Дисковод: PLEXTOR DVDR PX-880SA Adapter: 1 ID: 1

Режим чтения : ДостоверностьИспользование точного потока : ДаОтключение кэша аудио : ДаИспользование указателей C2 : Нет

Коррекция смещения при чтении : 6Способность читать области Lead-in и Lead-out : НетЗаполнение пропущенных сэмплов тишиной : ДаУдаление блоков с тишиной в начале и конце : НетПри вычислениях CRC использовались нулевые сэмплы : ДаИнтерфейс : Встроенный Win32-интерфейс для Win NT/2000

Выходной формат : Пользовательский кодировщикВыбранный битрейт : 1024 kBit/sКачество : ВысокийДобавление ID3-тэга : НетУтилита сжатия : C:\Program Files\Exact Audio Copy\FLAC\FLAC.EXEДополнительные параметры : -6 -V -T "ARTIST=%a" -T "TITLE=%t" -T "ALBUM=%g" -T "DATE=%y" -T "TRACKNUMBER=%n" -T "GENRE=%m" -T "COMMENT=%e" %s -o %d

TOC извлечённого CD

Трек | Старт | Длительность | Начальный сектор | Конечный сектор --------------------------------------------------------------------- 1 | 0:00.00 | 3:07.72 | 0 | 14096 2 | 3:07.72 | 3:46.20 | 14097 | 31066 3 | 6:54.17 | 2:26.00 | 31067 | 42016 4 | 9:20.17 | 3:37.33 | 42017 | 58324 5 | 12:57.50 | 4:33.72 | 58325 | 78871 6 | 17:31.47 | 3:53.33 | 78872 | 96379 7 | 21:25.05 | 2:10.37 | 96380 | 106166 8 | 23:35.42 | 3:25.28 | 106167 | 121569 9 | 27:00.70 | 3:44.20 | 121570 | 138389 10 | 30:45.15 | 4:56.25 | 138390 | 160614 11 | 35:41.40 | 2:31.37 | 160615 | 171976 12 | 38:13.02 | 5:38.13 | 171977 | 197339

Характеристики диапазона извлечения и сообщения об ошибках

Выбранный диапазон

Имя файла J:\BitComet\Set 'Em Up Joe - Set 'Em Up Joe(1999)(flac)\Set 'Em Up Joe - Set 'Em Up Joe.wav

Пиковый уровень 100.0 % Качество диапазона 100.0 % CRC теста AA30EC4D CRC копии AA30EC4D Копирование... OK

Ошибок не произошло

AccurateRip: сводка

Трек 1 точное извлечение (доверие 1) [10FE8FA9]Трек 2 точное извлечение (доверие 1) [F2841BBD]Трек 3 точное извлечение (доверие 1) [BAEA7B8D]Трек 4 точное извлечение (доверие 1) [DB66F7C5]Трек 5 точное извлечение (доверие 1) [699DD5A9]Трек 6 точное извлечение (доверие 1) [300A0BD2]Трек 7 точное извлечение (доверие 1) [91920424]Трек 8 точное извлечение (доверие 1) [8B850A0D]Трек 9 точное извлечение (доверие 1) [FF82796B]Трек 10 точное извлечение (доверие 1) [5B740F79]Трек 11 точное извлечение (доверие 1) [283D2C58]Трек 12 точное извлечение (доверие 1) [6EC46498]

Все треки извлечены точно

Конец отчёта
 
REM GENRE SwingREM DATE 1999REM DISCID A60A470CREM COMMENT "ExactAudioCopy v0.99pb4"PERFORMER "Set 'Em Up Joe"TITLE "Set 'Em Up Joe"FILE "Set 'Em Up Joe - Set 'Em Up Joe.flac" WAVE TRACK 01 AUDIO TITLE "Zoot Suit" PERFORMER "Set 'Em Up Joe" INDEX 01 00:00:00 TRACK 02 AUDIO TITLE "Cater Your Next Affair" PERFORMER "Set 'Em Up Joe" INDEX 00 03:05:00 INDEX 01 03:07:72 TRACK 03 AUDIO TITLE "She Can't Dance" PERFORMER "Set 'Em Up Joe" INDEX 00 06:51:25 INDEX 01 06:54:17 TRACK 04 AUDIO TITLE "Gino Goes Wild" PERFORMER "Set 'Em Up Joe" INDEX 00 09:17:20 INDEX 01 09:20:17 TRACK 05 AUDIO TITLE "Old Life Back" PERFORMER "Set 'Em Up Joe" INDEX 00 12:54:52 INDEX 01 12:57:50 TRACK 06 AUDIO TITLE "Gasoline" PERFORMER "Set 'Em Up Joe" INDEX 00 17:28:47 INDEX 01 17:31:47 TRACK 07 AUDIO TITLE "I Wanna Have Fun" PERFORMER "Set 'Em Up Joe" INDEX 00 21:22:10 INDEX 01 21:25:05 TRACK 08 AUDIO TITLE "Cake & Eat It Too" PERFORMER "Set 'Em Up Joe" INDEX 01 23:35:42 TRACK 09 AUDIO TITLE "Cool World" PERFORMER "Set 'Em Up Joe" INDEX 00 26:57:65 INDEX 01 27:00:70 TRACK 10 AUDIO TITLE "Hit Me With A Hotdog'" PERFORMER "Set 'Em Up Joe" INDEX 01 30:45:15 TRACK 11 AUDIO TITLE "Win Some, Lose Some" PERFORMER "Set 'Em Up Joe" INDEX 00 35:38:40 INDEX 01 35:41:40 TRACK 12 AUDIO TITLE "Brooklyn Hearted" PERFORMER "Set 'Em Up Joe" INDEX 00 38:10:07 INDEX 01 38:13:02
Доп. информация: Окунитесь в атмосферу 20-30 годов Чикаго - сухой закон, комиксы, война банд!!!
Рип сделан собственноручно !!!
Картинка с ещё запечатанного СД!!!
Сканы в папке.

b]Рип от ©СЁРФ-Маrаtones aka izia1956

Трекер:  [ 27-Янв-2012 19:42 ]

  

Скачать .torrent

Размер .torrent файла 12 KB


Размер: 283 MB
Хэш (hash) релиза: 2005426aecf3bbcb642c94d0fc00d5c26aa23a9a

Еще никто не оставлял запись к записи скачать торрент Set Em Up Joe - Set Em Up Joe - 1999, FLAC . Будь первым!

!Обратная связь