Скачать через торрент музыку The Duke Robillard Band - Low Down & Tore Up - 2011, FLAC бесплатно без регистрации torrent

Если у вас наблюдаются проблемы со скриншотами, переходом по ссылками, скачиванием торрентов - проблемы в блокировщике рекламы AdBlock. #хорошегоДня!


Статистика раздачи
Размер:  364 MB   |    Зарегистрирован:  5 лет 8 месяцев   |    .torrent скачан:  36 раз   |   
Раздают:  1  
   
Загрузка...
 
Автор Сообщение

Umakiro

avatar Umakiro


The Duke Robillard Band
Low Down
and
Tore Up
Жанр: Blues
Страна-производитель диска: USA
Год издания диска: 2011
Издатель (лейбл): Stony Plain
Номер по каталогу: SPCD1357
Аудиокодек: FLAC (*.flac)
Тип рипа: image+.cue
Битрейт аудио: lossless
Продолжительность: 49:13
Источник (релизер): ©СЁРФ-Маrаtones aka izia1956
Наличие сканов в содержимом раздачи: да
01. Quicksand (3:12)
02. Train Fare Home (4:35)
03. Mercy Mercy Mama (3:04)
04. Overboard (3:18)
05. Blues After Hours (4:33)
06. Want Ad Blues (3:58)
07. Do Unto Others (2:27)
08. It's Alright (3:22)
09. Let Me Play With Your Poodle (2:35
10. Tool Bag Boogie (3:10)
11. What's Wrong (3:35)
12. I Ain't Mad At You (3:30)
13. Twelve Year Old Boy (4:31)
14. Later For You Baby (3:18)

 
Exact Audio Copy V0.99 prebeta 4 from 23. January 2008

Отчёт EAC об извлечении, выполненном 20. сентября 2011, 20:13

The Duke Robillard Band / Low Down & Tore Up

Дисковод: PLEXTOR DVDR PX-880SA Adapter: 1 ID: 1

Режим чтения : ДостоверностьИспользование точного потока : ДаОтключение кэша аудио : ДаИспользование указателей C2 : Нет

Коррекция смещения при чтении : 6Способность читать области Lead-in и Lead-out : НетЗаполнение пропущенных сэмплов тишиной : ДаУдаление блоков с тишиной в начале и конце : НетПри вычислениях CRC использовались нулевые сэмплы : ДаИнтерфейс : Встроенный Win32-интерфейс для Win NT/2000

Выходной формат : Пользовательский кодировщикВыбранный битрейт : 1024 kBit/sКачество : ВысокийДобавление ID3-тэга : НетУтилита сжатия : C:\Program Files\Exact Audio Copy\FLAC\FLAC.EXEДополнительные параметры : -6 -V -T "ARTIST=%a" -T "TITLE=%t" -T "ALBUM=%g" -T "DATE=%y" -T "TRACKNUMBER=%n" -T "GENRE=%m" -T "COMMENT=%e" %s -o %d

TOC извлечённого CD

Трек | Старт | Длительность | Начальный сектор | Конечный сектор --------------------------------------------------------------------- 1 | 0:00.00 | 3:12.10 | 0 | 14409 2 | 3:12.10 | 4:35.65 | 14410 | 35099 3 | 7:48.00 | 3:04.21 | 35100 | 48920 4 | 10:52.21 | 3:18.60 | 48921 | 63830 5 | 14:11.06 | 4:33.21 | 63831 | 84326 6 | 18:44.27 | 3:58.21 | 84327 | 102197 7 | 22:42.48 | 2:27.13 | 102198 | 113235 8 | 25:09.61 | 3:22.05 | 113236 | 128390 9 | 28:31.66 | 2:35.36 | 128391 | 140051 10 | 31:07.27 | 3:10.01 | 140052 | 154302 11 | 34:17.28 | 3:35.20 | 154303 | 170447 12 | 37:52.48 | 3:30.24 | 170448 | 186221 13 | 41:22.72 | 4:31.64 | 186222 | 206610 14 | 45:54.61 | 3:18.50 | 206611 | 221510

Характеристики диапазона извлечения и сообщения об ошибках

Выбранный диапазон

Имя файла J:\BitComet\The Duke Robillard Band - Low Down & Tore Up(2011)(flac)\The Duke Robillard Band - Low Down & Tore Up.wav

Пиковый уровень 97.7 % Качество диапазона 100.0 % CRC теста BAA91356 CRC копии BAA91356 Копирование... OK

Ошибок не произошло

AccurateRip: сводка

Трек 1 нет в базе данныхТрек 2 нет в базе данныхТрек 3 нет в базе данныхТрек 4 нет в базе данныхТрек 5 нет в базе данныхТрек 6 нет в базе данныхТрек 7 нет в базе данныхТрек 8 нет в базе данныхТрек 9 нет в базе данныхТрек 10 нет в базе данныхТрек 11 нет в базе данныхТрек 12 нет в базе данныхТрек 13 нет в базе данныхТрек 14 нет в базе данных

Ни одного трека нет в базе AccurateRip

Конец отчёта
Доп. информация: Приношу извинение за БЛЮЗ по вторникам-средам!!!
Всему виной новый альбом The Duke Robillard Band - Low Down & Tore Up

Рип сделан собственноручно.
Сканы в папке.

Рип от ©СЁРФ-Маrаtones aka izia1956

Трекер:  [ 27-Янв-2012 19:41 ]

  

Скачать .torrent

Размер .torrent файла 15 KB


Размер: 364 MB
Хэш (hash) релиза: db1e8c655e54f04a29291db2b19ce52bf511dbb8

Еще никто не оставлял запись к записи скачать торрент The Duke Robillard Band - Low Down & Tore Up - 2011, FLAC . Будь первым!

!Обратная связь