Скачать через торрент музыку Rosanna Fratello - Tre Rose Rosse - 2011, FLAC бесплатно без регистрации torrent

Если у вас наблюдаются проблемы со скриншотами, переходом по ссылками, скачиванием торрентов - проблемы в блокировщике рекламы AdBlock. #хорошегоДня!


Статистика раздачи
Размер:  299 MB   |    Зарегистрирован:  5 лет 8 месяцев   |    .torrent скачан:  40 раз   |   
Раздают:  1   Качают:  1  
   
Загрузка...
 
Автор Сообщение

Umakiro

avatar Umakiro


Rosanna Fratello

Tre Rose Rosse
Жанр: Italo-Pop
Страна-производитель диска: Italy
Год издания диска: 2011
Издатель (лейбл): Azzurra Music
Номер по каталогу: TBP11593
Аудиокодек: FLAC (*.flac)
Тип рипа: image+.cue
Битрейт аудио: lossless
Продолжительность: 40:31
Источник (релизер): ©СЁРФ-Маrаtones aka izia1956
Наличие сканов в содержимом раздачи: да


01. Tre Rose Rosse (4:00)
02. Pane E Miele (3:48)
03. Un Tangaccio (3:33)
04. Stai Attento (3:25)
05. Bang Bang (My Baby Shot Me Down) (3:08)
06. La Carovana (4:05)
07. Se Perdo Anche Te (3:11)
08. Figlio Dell'amore (4:26)
09. Schiaffo (3:38)
10. Non Sono Maddalena (3:36)
11. Sono Una Donna Non Sono Una Santa (3:35)

 
Exact Audio Copy V0.99 prebeta 4 from 23. January 2008

Отчёт EAC об извлечении, выполненном 1. октября 2011, 11:39

Rosanna Fratello / Tre Rose Rosse

Дисковод: PLEXTOR DVDR PX-880SA Adapter: 1 ID: 1

Режим чтения : ДостоверностьИспользование точного потока : ДаОтключение кэша аудио : ДаИспользование указателей C2 : Нет

Коррекция смещения при чтении : 6Способность читать области Lead-in и Lead-out : НетЗаполнение пропущенных сэмплов тишиной : ДаУдаление блоков с тишиной в начале и конце : НетПри вычислениях CRC использовались нулевые сэмплы : ДаИнтерфейс : Встроенный Win32-интерфейс для Win NT/2000

Выходной формат : Пользовательский кодировщикВыбранный битрейт : 1024 kBit/sКачество : ВысокийДобавление ID3-тэга : НетУтилита сжатия : C:\Program Files\Exact Audio Copy\FLAC\FLAC.EXEДополнительные параметры : -6 -V -T "ARTIST=%a" -T "TITLE=%t" -T "ALBUM=%g" -T "DATE=%y" -T "TRACKNUMBER=%n" -T "GENRE=%m" -T "COMMENT=%e" %s -o %d

TOC извлечённого CD

Трек | Старт | Длительность | Начальный сектор | Конечный сектор --------------------------------------------------------------------- 1 | 0:00.00 | 4:00.36 | 0 | 18035 2 | 4:00.36 | 3:48.60 | 18036 | 35195 3 | 7:49.21 | 3:33.19 | 35196 | 51189 4 | 11:22.40 | 3:25.60 | 51190 | 66624 5 | 14:48.25 | 3:08.09 | 66625 | 80733 6 | 17:56.34 | 4:05.70 | 80734 | 99178 7 | 22:02.29 | 3:11.61 | 99179 | 113564 8 | 25:14.15 | 4:26.65 | 113565 | 133579 9 | 29:41.05 | 3:38.44 | 133580 | 149973 10 | 33:19.49 | 3:36.39 | 149974 | 166212 11 | 36:56.13 | 3:35.09 | 166213 | 182346

Характеристики диапазона извлечения и сообщения об ошибках

Выбранный диапазон

Имя файла J:\BitComet\Rosanna Fratello - Tre Rose Rosse(2011)(flac)\Rosanna Fratello - Tre Rose Rosse.wav

Пиковый уровень 99.7 % Качество диапазона 100.0 % CRC теста AA0B5510 CRC копии AA0B5510 Копирование... OK

Ошибок не произошло

AccurateRip: сводка

Трек 1 нет в базе данныхТрек 2 нет в базе данныхТрек 3 нет в базе данныхТрек 4 нет в базе данныхТрек 5 нет в базе данныхТрек 6 нет в базе данныхТрек 7 нет в базе данныхТрек 8 нет в базе данныхТрек 9 нет в базе данныхТрек 10 нет в базе данныхТрек 11 нет в базе данных

Ни одного трека нет в базе AccurateRip

Конец отчёта
Доп. информация: Новый альбом замечательной Итальянской певицы Rosanna Fratello!!!
На мой взгляд один из лучших альбомов Итальянских исполнителей за последние 10-15 лет!!!

Рип сделан собственноручно.
Сканы в папке.

Рип от ©СЁРФ-Маrаtones aka izia1956

Трекер:  [ 27-Янв-2012 19:40 ]

  

Скачать .torrent

Размер .torrent файла 13 KB


Размер: 299 MB
Хэш (hash) релиза: d8cb5bf8f827e8802bd75f1cca6ef2d96c00f66f

Еще никто не оставлял запись к записи скачать торрент Rosanna Fratello - Tre Rose Rosse - 2011, FLAC . Будь первым!

!Обратная связь