Скачать через торрент музыку George Benson - Guitar Man - 2011, FLAC бесплатно без регистрации torrent

Если у вас наблюдаются проблемы со скриншотами, переходом по ссылками, скачиванием торрентов - проблемы в блокировщике рекламы AdBlock. #хорошегоДня!


Статистика раздачи
Размер:  244 MB   |    Зарегистрирован:  5 лет 8 месяцев   |    .torrent скачан:  47 раз   |   
Раздают:  1  
   
Загрузка...
 
Автор Сообщение

Umakiro

avatar Umakiro


George Benson

Guitar Man
Жанр: Smooth Jazz, Guitar Jazz
Страна-производитель диска: USA
Год издания диска: 2011
Издатель (лейбл): Concord
Номер по каталогу: CJA-33099-02
Аудиокодек: FLAC (*.flac)
Тип рипа: image+.cue
Битрейт аудио: lossless
Продолжительность: 43:03
Источник (релизер): ©СЁРФ-Маrаtones aka izia1956
Наличие сканов в содержимом раздачи: да
01. Tenderly (2:01)
02. I Want to Hold Your Hand (5:10)
03. My Cherie Amour (4:08)
04. Naima (3:41)
05. Tequila (4:301)
06. Don't Know Why (2:45)
07. The Lady in My Life (4:30)
08. My One and Only Love (3:24)
09. Paper Moon (2:44)
10. Danny Boy (3:26)
11. Since I Fell For You (2:58)
12. Fingerlero (3:40)

 
Exact Audio Copy V0.99 prebeta 4 from 23. January 2008

Отчёт EAC об извлечении, выполненном 4. октября 2011, 17:51

George Benson / Guitar Man

Дисковод: PLEXTOR DVDR PX-880SA Adapter: 1 ID: 1

Режим чтения : ДостоверностьИспользование точного потока : ДаОтключение кэша аудио : ДаИспользование указателей C2 : Нет

Коррекция смещения при чтении : 6Способность читать области Lead-in и Lead-out : НетЗаполнение пропущенных сэмплов тишиной : ДаУдаление блоков с тишиной в начале и конце : НетПри вычислениях CRC использовались нулевые сэмплы : ДаИнтерфейс : Встроенный Win32-интерфейс для Win NT/2000

Выходной формат : Пользовательский кодировщикВыбранный битрейт : 1024 kBit/sКачество : ВысокийДобавление ID3-тэга : НетУтилита сжатия : C:\Program Files\Exact Audio Copy\FLAC\FLAC.EXEДополнительные параметры : -6 -V -T "ARTIST=%a" -T "TITLE=%t" -T "ALBUM=%g" -T "DATE=%y" -T "TRACKNUMBER=%n" -T "GENRE=%m" -T "COMMENT=%e" %s -o %d

TOC извлечённого CD

Трек | Старт | Длительность | Начальный сектор | Конечный сектор --------------------------------------------------------------------- 1 | 0:00.00 | 2:01.62 | 0 | 9136 2 | 2:01.62 | 5:10.15 | 9137 | 32401 3 | 7:12.02 | 4:08.25 | 32402 | 51026 4 | 11:20.27 | 3:41.28 | 51027 | 67629 5 | 15:01.55 | 4:30.74 | 67630 | 87953 6 | 19:32.54 | 2:45.19 | 87954 | 100347 7 | 22:17.73 | 4:30.30 | 100348 | 120627 8 | 26:48.28 | 3:24.60 | 120628 | 135987 9 | 30:13.13 | 2:44.56 | 135988 | 148343 10 | 32:57.69 | 3:26.64 | 148344 | 163857 11 | 36:24.58 | 2:58.33 | 163858 | 177240 12 | 39:23.16 | 3:40.00 | 177241 | 193740

Характеристики диапазона извлечения и сообщения об ошибках

Выбранный диапазон

Имя файла J:\BitComet\George Benson - Guitar Man(2011)(flac)\George Benson - Guitar Man.wav

Пиковый уровень 100.0 % Качество диапазона 100.0 % CRC теста 1ACB2A19 CRC копии 1ACB2A19 Копирование... OK

Ошибок не произошло

AccurateRip: сводка

Трек 1 нет в базе данныхТрек 2 нет в базе данныхТрек 3 нет в базе данныхТрек 4 нет в базе данныхТрек 5 нет в базе данныхТрек 6 нет в базе данныхТрек 7 нет в базе данныхТрек 8 нет в базе данныхТрек 9 нет в базе данныхТрек 10 нет в базе данныхТрек 11 нет в базе данныхТрек 12 нет в базе данных

Ни одного трека нет в базе AccurateRip

Конец отчёта
 
REM GENRE "Concord Jazz"REM DATE 2011REM DISCID 9E0A170CREM COMMENT "ExactAudioCopy v0.99pb4"PERFORMER "George Benson"TITLE "Guitar Man"FILE "George Benson - Guitar Man.flac" WAVE TRACK 01 AUDIO TITLE "Tenderly" PERFORMER "George Benson" INDEX 01 00:00:00 TRACK 02 AUDIO TITLE "I Want to Hold Your Hand" PERFORMER "George Benson" INDEX 01 02:01:62 TRACK 03 AUDIO TITLE "My Cherie Amour" PERFORMER "George Benson" INDEX 01 07:12:02 TRACK 04 AUDIO TITLE "Naima" PERFORMER "George Benson" INDEX 01 11:20:27 TRACK 05 AUDIO TITLE "Tequila" PERFORMER "George Benson" INDEX 01 15:01:55 TRACK 06 AUDIO TITLE "Don't Know Why" PERFORMER "George Benson" INDEX 01 19:32:54 TRACK 07 AUDIO TITLE "The Lady in My Life" PERFORMER "George Benson" INDEX 01 22:17:73 TRACK 08 AUDIO TITLE "My One and Only Love" PERFORMER "George Benson" INDEX 01 26:48:28 TRACK 09 AUDIO TITLE "Paper Moon" PERFORMER "George Benson" INDEX 01 30:13:13 TRACK 10 AUDIO TITLE "Danny Boy" PERFORMER "George Benson" INDEX 01 32:57:69 TRACK 11 AUDIO TITLE "Since I Fell for You" PERFORMER "George Benson" INDEX 01 36:24:58 TRACK 12 AUDIO TITLE "Fingerlero" PERFORMER "George Benson" INDEX 01 39:23:16
Доп. информация: Рип сделан собственноручно.
Картинка с ещё запечатанного СД!!!
Сканы в папке.

Рип от ©СЁРФ-Маrаtones aka izia1956

Трекер:  [ 27-Янв-2012 19:39 ]

  

Скачать .torrent

Размер .torrent файла 20 KB


Размер: 244 MB
Хэш (hash) релиза: b8c2aa268ef03cebf77c6536d413cee860d84142

Еще никто не оставлял запись к записи скачать торрент George Benson - Guitar Man - 2011, FLAC . Будь первым!

!Обратная связь