Скачать через торрент музыку Dirty Dave Osti - Burning Down The Dirtshack - 2011, FLAC бесплатно без регистрации torrent

Если у вас наблюдаются проблемы со скриншотами, переходом по ссылками, скачиванием торрентов - проблемы в блокировщике рекламы AdBlock. #хорошегоДня!


Статистика раздачи
Размер:  356 MB   |    Зарегистрирован:  5 лет 8 месяцев   |    .torrent скачан:  33 раза   |   
Раздают:  1  
   
Загрузка...
 
Автор Сообщение

Umakiro

avatar Umakiro


Dirty Dave Osti

Burning Down
the Dirtshack

Жанр: Blues-Rock
Страна-производитель диска: USA
Год издания диска: 2011
Издатель (лейбл): Grooveyard Records
Номер по каталогу: GYR083
Аудиокодек: FLAC (*.flac)
Тип рипа: image+.cue
Битрейт аудио: lossless
Продолжительность: 49:50
Источник (релизер): ©СЁРФ-Маrаtones aka izia1956
Наличие сканов в содержимом раздачи: да


01. Get Your Gun (3:29)
02. Re-run (3:23)
03. Dirtshack (5:03)
04. First Degree (4:42)
05. She's A Natural (3:54)
06. Broken Man (5:39)
07. Blues Don't Lie (4:51)
08. Freedom Fight (4:22)
09. Ball And Chain (4:41)
10. Pile Of Gold (3:53)
11. Midnight Rider (5:48)
 
Exact Audio Copy V0.99 prebeta 4 from 23. January 2008

Отчёт EAC об извлечении, выполненном 6. декабря 2011, 20:35

Dirty Dave Osti / Burning Down The Dirtshack

Дисковод: PLEXTOR DVDR PX-880SA Adapter: 1 ID: 1

Режим чтения : ДостоверностьИспользование точного потока : ДаОтключение кэша аудио : ДаИспользование указателей C2 : Нет

Коррекция смещения при чтении : 6Способность читать области Lead-in и Lead-out : НетЗаполнение пропущенных сэмплов тишиной : ДаУдаление блоков с тишиной в начале и конце : НетПри вычислениях CRC использовались нулевые сэмплы : ДаИнтерфейс : Встроенный Win32-интерфейс для Win NT/2000

Выходной формат : Пользовательский кодировщикВыбранный битрейт : 1024 kBit/sКачество : ВысокийДобавление ID3-тэга : НетУтилита сжатия : C:\Program Files\Exact Audio Copy\FLAC\FLAC.EXEДополнительные параметры : -6 -V -T "ARTIST=%a" -T "TITLE=%t" -T "ALBUM=%g" -T "DATE=%y" -T "TRACKNUMBER=%n" -T "GENRE=%m" -T "COMMENT=%e" %s -o %d

TOC извлечённого CD

Трек | Старт | Длительность | Начальный сектор | Конечный сектор --------------------------------------------------------------------- 1 | 0:00.00 | 3:29.21 | 0 | 15695 2 | 3:29.21 | 3:23.07 | 15696 | 30927 3 | 6:52.28 | 5:03.69 | 30928 | 53721 4 | 11:56.22 | 4:42.71 | 53722 | 74942 5 | 16:39.18 | 3:54.33 | 74943 | 92525 6 | 20:33.51 | 5:39.21 | 92526 | 117971 7 | 26:12.72 | 4:51.54 | 117972 | 139850 8 | 31:04.51 | 4:22.69 | 139851 | 159569 9 | 35:27.45 | 4:41.11 | 159570 | 180655 10 | 40:08.56 | 3:53.56 | 180656 | 198186 11 | 44:02.37 | 5:48.03 | 198187 | 224289

Характеристики диапазона извлечения и сообщения об ошибках

Выбранный диапазон

Имя файла J:\BitComet\Dirty Dave Osti - Burning Down The Dirtshack(2011)(flac)\Dirty Dave Osti - Burning Down The Dirtshack.wav

Пиковый уровень 97.7 % Качество диапазона 100.0 % CRC теста AD7DB425 CRC копии AD7DB425 Копирование... OK

Ошибок не произошло

AccurateRip: сводка

Трек 1 нет в базе данныхТрек 2 нет в базе данныхТрек 3 нет в базе данныхТрек 4 нет в базе данныхТрек 5 нет в базе данныхТрек 6 нет в базе данныхТрек 7 нет в базе данныхТрек 8 нет в базе данныхТрек 9 нет в базе данныхТрек 10 нет в базе данныхТрек 11 нет в базе данных

Ни одного трека нет в базе AccurateRip

Конец отчёта
Killer 2nd studio disc by this excellent blues/rock axeslinger from California featuring 11 tracks of awesome, brain-damaging, hard-hitting, dynamic, blues-based, retro-70s, heavy guitar power trio mojo that will rock your good jam:house into the dirt floor. Diggin' deep on the riffage that matters with full-tilt Stratocasters blazing in the midnight sun, Dirty Dave Osti gets down on his axe, rips it hard and sets the six string dirtshack on fire. A fierce and powerful essential modern day old school bluesy heavy guitar rocker that is Highly recommended to fans of Hendrix, Trower, ZZ Top & Johnny Winter.
Доп. информация: БЛЮЗ со вторника на среду: знакомое имя - Dirty Dave Osti!!!

Рип сделан собственноручно.
Сканы в папке.

Ознакомиться(прослушать) можно здесь

PS. Классный, местами тяжёлый(Hard'n'Heavy) блюзовый альбом!!!

Рип от ©СЁРФ-Маrаtones aka izia1956

Трекер:  [ 27-Янв-2012 19:36 ]

  

Скачать .torrent

Размер .torrent файла 15 KB


Размер: 356 MB
Хэш (hash) релиза: 06991f208a32e2f5df236c0b751cb03c4b2a0e6f

Еще никто не оставлял запись к записи скачать торрент Dirty Dave Osti - Burning Down The Dirtshack - 2011, FLAC . Будь первым!

!Обратная связь