Скачать через торрент музыку Pinewolf & the Pack - Oh Yeah! - 2011, FLAC бесплатно без регистрации torrent

Если у вас наблюдаются проблемы со скриншотами, переходом по ссылками, скачиванием торрентов - проблемы в блокировщике рекламы AdBlock. #хорошегоДня!


Статистика раздачи
Размер:  326 MB   |    Зарегистрирован:  5 лет 8 месяцев   |    .torrent скачан:  31 раз   |   
Раздают:  1  
   
Загрузка...
 
Автор Сообщение

Umakiro

avatar Umakiro


Pinewolf
& the
Pack

- Oh Yeah! -
Жанр: Blues-Rock
Страна-производитель диска: USA
Год издания диска: 2011
Аудиокодек: FLAC (*.flac)
Тип рипа: image+.cue
Битрейт аудио: lossless
Продолжительность: 50:19
Источник (релизер): ©СЁРФ-Маrаtones aka izia1956
Наличие сканов в содержимом раздачи: да


01. Blowin' the House Down (3:41)
02. Station No Tracks (3:40)
03. Blue Dreams (5:28)
04. Cigarettes and Wicker Ashtrays (4:45)
05. Boom Boom Boom (4:52)
06. Walkin' the Streets (6:03)
07. Mile Away (3:37)
08. Someday Soon (3:28)
09. Take a Walk (5:54)
10. Home of the Blues (4:55)
11. Blow Your Top (Oh Yeah!) (3:56)
 
Exact Audio Copy V0.99 prebeta 4 from 23. January 2008

Отчёт EAC об извлечении, выполненном 27. декабря 2011, 19:45

Pinewolf & The Pack / Oh Yeah!

Дисковод: PLEXTOR DVDR PX-880SA Adapter: 1 ID: 1

Режим чтения : ДостоверностьИспользование точного потока : ДаОтключение кэша аудио : ДаИспользование указателей C2 : Нет

Коррекция смещения при чтении : 6Способность читать области Lead-in и Lead-out : НетЗаполнение пропущенных сэмплов тишиной : ДаУдаление блоков с тишиной в начале и конце : НетПри вычислениях CRC использовались нулевые сэмплы : ДаИнтерфейс : Встроенный Win32-интерфейс для Win NT/2000

Выходной формат : Пользовательский кодировщикВыбранный битрейт : 1024 kBit/sКачество : ВысокийДобавление ID3-тэга : НетУтилита сжатия : C:\Program Files\Exact Audio Copy\FLAC\FLAC.EXEДополнительные параметры : -6 -V -T "ARTIST=%a" -T "TITLE=%t" -T "ALBUM=%g" -T "DATE=%y" -T "TRACKNUMBER=%n" -T "GENRE=%m" -T "COMMENT=%e" %s -o %d

TOC извлечённого CD

Трек | Старт | Длительность | Начальный сектор | Конечный сектор --------------------------------------------------------------------- 1 | 0:00.00 | 3:41.02 | 0 | 16576 2 | 3:41.02 | 3:39.61 | 16577 | 33062 3 | 7:20.63 | 5:28.33 | 33063 | 57695 4 | 12:49.21 | 4:45.07 | 57696 | 79077 5 | 17:34.28 | 4:51.55 | 79078 | 100957 6 | 22:26.08 | 6:03.24 | 100958 | 128206 7 | 28:29.32 | 3:36.62 | 128207 | 144468 8 | 32:06.19 | 3:28.06 | 144469 | 160074 9 | 35:34.25 | 5:54.35 | 160075 | 186659 10 | 41:28.60 | 4:54.58 | 186660 | 208767 11 | 46:23.43 | 3:55.41 | 208768 | 226433

Характеристики диапазона извлечения и сообщения об ошибках

Выбранный диапазон

Имя файла J:\BitComet\Pinewolf & The Pack - Oh Yeah!(2011)(flac)\Pinewolf & The Pack - Oh Yeah!.wav

Пиковый уровень 99.7 % Качество диапазона 99.9 % CRC теста 2A49F728 CRC копии 2A49F728 Копирование... OK

Ошибок не произошло

AccurateRip: сводка

Трек 1 нет в базе данныхТрек 2 нет в базе данныхТрек 3 нет в базе данныхТрек 4 нет в базе данныхТрек 5 нет в базе данныхТрек 6 нет в базе данныхТрек 7 нет в базе данныхТрек 8 нет в базе данныхТрек 9 нет в базе данныхТрек 10 нет в базе данныхТрек 11 нет в базе данных

Ни одного трека нет в базе AccurateRip

Конец отчёта
Доп. информация: Предновогодний БЛЮЗ-МАРАФОН подходит к концу!!!
С БЛЮЗом с пятницы на субботу: новое имя - Pinewolf & the Pack!!!

Рип сделан собственноручно.
Сканы в папке.

Ознакомиться(прослушать) можно здесь

PS. Новогодний подарок всем любителям хорошей музыки - прекрасный альбом, поздравляю всех любителей БЛЮЗа с наступающим Новым Годом!!!

Рип от ©СЁРФ-Маrаtones aka izia1956

Трекер:  [ 27-Янв-2012 19:34 ]

  

Скачать .torrent

Размер .torrent файла 14 KB


Размер: 326 MB
Хэш (hash) релиза: d4404b6acad4e068b8a002fe8025ee24d2a6b27c

Еще никто не оставлял запись к записи скачать торрент Pinewolf & the Pack - Oh Yeah! - 2011, FLAC . Будь первым!

!Обратная связь