Скачать через торрент музыку Guitar Pete - Raw Deal - 2011, FLAC бесплатно без регистрации torrent

Если у вас наблюдаются проблемы со скриншотами, переходом по ссылками, скачиванием торрентов - проблемы в блокировщике рекламы AdBlock. #хорошегоДня!


Статистика раздачи
Размер:  385 MB   |    Зарегистрирован:  5 лет 8 месяцев   |    .torrent скачан:  50 раз   |   
Раздают:  1  
   
Загрузка...
 
Автор Сообщение

Umakiro

avatar Umakiro


Guitar Pete

Raw Deal
Жанр: Heavy Blues Rock
Страна-производитель диска: USA
Год издания диска: 2011
Издатель (лейбл): Grooveyard Records
Номер по каталогу: GYR085
Аудиокодек: FLAC (*.flac)
Тип рипа: image+.cue
Битрейт аудио: lossless
Продолжительность: 55:51
Источник (релизер): ©СЁРФ-Маrаtones aka izia1956
Наличие сканов в содержимом раздачи: да


01. Raw Deal (8:22)
02. Battle Cry (5:39)
03. All Fired Up (5:30)
04. Gimme Back My Bullets (6:15)
05. Born to Lose (5:35)
06. Too Far Gone (5:11)
07. Dead and Gone (5:43)
08. Mudslinger (4:12)
09. Love Me or I'll Kill You (9:19)
 
Exact Audio Copy V0.99 prebeta 4 from 23. January 2008

Отчёт EAC об извлечении, выполненном 10. декабря 2011, 13:20

Guitar Pete / Raw Deal

Дисковод: PLEXTOR DVDR PX-880SA Adapter: 1 ID: 1

Режим чтения : ДостоверностьИспользование точного потока : ДаОтключение кэша аудио : ДаИспользование указателей C2 : Нет

Коррекция смещения при чтении : 6Способность читать области Lead-in и Lead-out : НетЗаполнение пропущенных сэмплов тишиной : ДаУдаление блоков с тишиной в начале и конце : НетПри вычислениях CRC использовались нулевые сэмплы : ДаИнтерфейс : Встроенный Win32-интерфейс для Win NT/2000

Выходной формат : Пользовательский кодировщикВыбранный битрейт : 1024 kBit/sКачество : ВысокийДобавление ID3-тэга : НетУтилита сжатия : C:\Program Files\Exact Audio Copy\FLAC\FLAC.EXEДополнительные параметры : -6 -V -T "ARTIST=%a" -T "TITLE=%t" -T "ALBUM=%g" -T "DATE=%y" -T "TRACKNUMBER=%n" -T "GENRE=%m" -T "COMMENT=%e" %s -o %d

TOC извлечённого CD

Трек | Старт | Длительность | Начальный сектор | Конечный сектор --------------------------------------------------------------------- 1 | 0:00.00 | 8:22.28 | 0 | 37677 2 | 8:22.28 | 5:39.48 | 37678 | 63150 3 | 14:02.01 | 5:30.27 | 63151 | 87927 4 | 19:32.28 | 6:15.65 | 87928 | 116117 5 | 25:48.18 | 5:35.42 | 116118 | 141284 6 | 31:23.60 | 5:11.73 | 141285 | 164682 7 | 36:35.58 | 5:43.13 | 164683 | 190420 8 | 42:18.71 | 4:12.39 | 190421 | 209359 9 | 46:31.35 | 9:19.66 | 209360 | 251350

Характеристики диапазона извлечения и сообщения об ошибках

Выбранный диапазон

Имя файла J:\BitComet\Guitar Pete - Raw Deal(2011)(flac)\Guitar Pete - Raw Deal.wav

Пиковый уровень 94.4 % Качество диапазона 100.0 % CRC теста 7CDE3425 CRC копии 7CDE3425 Копирование... OK

Ошибок не произошло

AccurateRip: сводка

Трек 1 нет в базе данныхТрек 2 нет в базе данныхТрек 3 нет в базе данныхТрек 4 нет в базе данныхТрек 5 нет в базе данныхТрек 6 нет в базе данныхТрек 7 нет в базе данныхТрек 8 нет в базе данныхТрек 9 нет в базе данных

Ни одного трека нет в базе AccurateRip

Конец отчёта
Way-kool 4th studio disc by this bad-ass, killer blues/rock axeripper from NYC
featuring 9 tracks - 56 mins. of mega-awesome, powerful, over the top, southern-fried
blues-based, retro-70s, heavy guitar jammin' power trio riffage that will rock your world.
Guitar Pete Brasino is a supreme six string Riff-master who goes for the throat with his
axe and takes no prisoners with his tough, brutal, mind-blowing heavy guitar assault.
Lock up your daughters, because Guitar Pete is in town and there is a serious
"Raw Deal" goin' down. An incredible heavy guitar riff:monster that is Highly
recommended to fans of Leslie West / Mountain, Hendrix, Trower, SRV,
ZZ Top, Blackfoot, Lynyrd Skynyrd, Bonamassa & Zakk Wylde.
Доп. информация: Предновогодний БЛЮЗ-МАРАФОН продолжается!!!
С субботним БЛЮЗом: наш старый знакомый - Guitar Pete!!!

Рип сделан собственноручно.
Сканы в папке.

Ознакомиться(прослушать) можно здесь

PS. Раздача по просьбе уважаемого Kocegub - хороший альбом, настоящий Hard'n'Heavy Blues

Рип от ©СЁРФ-Маrаtones aka izia1956

Трекер:  [ 27-Янв-2012 19:33 ]

  

Скачать .torrent

Размер .torrent файла 16 KB


Размер: 385 MB
Хэш (hash) релиза: 4cb73a5c4e4e98dd79eaed81778138ab55d8fa3d

Еще никто не оставлял запись к записи скачать торрент Guitar Pete - Raw Deal - 2011, FLAC . Будь первым!

!Обратная связь