Скачать через торрент музыку The Pumps - Cover to Cover - 2011, FLAC бесплатно без регистрации torrent

Если у вас наблюдаются проблемы со скриншотами, переходом по ссылками, скачиванием торрентов - проблемы в блокировщике рекламы AdBlock. #хорошегоДня!


Статистика раздачи
Размер:  379 MB   |    Зарегистрирован:  5 лет 8 месяцев   |    .torrent скачан:  26 раз   |   
Раздают:  1  
   
Загрузка...
 
Автор Сообщение

Umakiro

avatar Umakiro


The Pumps

Cover to Cover
Жанр: Blues-Rock, Rock'n'Roll
Страна-производитель диска: USA
Год записи диска: 2010
Год издания диска: 2011
Аудиокодек: FLAC (*.flac)
Тип рипа: image+.cue
Битрейт аудио: lossless
Продолжительность: 56:48
Источник (релизер): ©СЁРФ-Маrаtones aka izia1956
Наличие сканов в содержимом раздачи: да


01. Rock This House (3:52)
02. Moving On (3:27)
03. Forty Days and Forty Nights (5:49)
04. Good Time Roll Creole (3:55)
05. Blues Makes Me Feel So Good (3:25)
06. The One After 909 (2:52)
07. Temptation (5:34)
08. Walking By Myself (3:41)
09. She's Hot (4:07)
10. Treat Her Right (3:33)
11. I Can Tell (4:13)
12. Fever (4:27)
13. Boom Boom (4:06)
14. Blues Attack (3:41)
 
Exact Audio Copy V0.99 prebeta 4 from 23. January 2008

Отчёт EAC об извлечении, выполненном 9. января 2012, 12:31

The Pumps / Cover to Cover

Дисковод: PLEXTOR DVDR PX-880SA Adapter: 1 ID: 1

Режим чтения : ДостоверностьИспользование точного потока : ДаОтключение кэша аудио : ДаИспользование указателей C2 : Нет

Коррекция смещения при чтении : 6Способность читать области Lead-in и Lead-out : НетЗаполнение пропущенных сэмплов тишиной : ДаУдаление блоков с тишиной в начале и конце : НетПри вычислениях CRC использовались нулевые сэмплы : ДаИнтерфейс : Встроенный Win32-интерфейс для Win NT/2000

Выходной формат : Пользовательский кодировщикВыбранный битрейт : 1024 kBit/sКачество : ВысокийДобавление ID3-тэга : НетУтилита сжатия : C:\Program Files\Exact Audio Copy\FLAC\FLAC.EXEДополнительные параметры : -6 -V -T "ARTIST=%a" -T "TITLE=%t" -T "ALBUM=%g" -T "DATE=%y" -T "TRACKNUMBER=%n" -T "GENRE=%m" -T "COMMENT=%e" %s -o %d

TOC извлечённого CD

Трек | Старт | Длительность | Начальный сектор | Конечный сектор --------------------------------------------------------------------- 1 | 0:00.00 | 3:52.46 | 0 | 17445 2 | 3:52.46 | 3:27.40 | 17446 | 33010 3 | 7:20.11 | 5:49.57 | 33011 | 59242 4 | 13:09.68 | 3:55.56 | 59243 | 76923 5 | 17:05.49 | 3:25.26 | 76924 | 92324 6 | 20:31.00 | 2:52.22 | 92325 | 105246 7 | 23:23.22 | 5:34.18 | 105247 | 130314 8 | 28:57.40 | 3:41.11 | 130315 | 146900 9 | 32:38.51 | 4:07.08 | 146901 | 165433 10 | 36:45.59 | 3:33.00 | 165434 | 181408 11 | 40:18.59 | 4:13.36 | 181409 | 200419 12 | 44:32.20 | 4:27.43 | 200420 | 220487 13 | 48:59.63 | 4:06.28 | 220488 | 238965 14 | 53:06.16 | 3:41.67 | 238966 | 255607

Характеристики диапазона извлечения и сообщения об ошибках

Выбранный диапазон

Имя файла J:\BitComet\The Pumps - Cover to Cover(2011)(flac)\The Pumps - Cover to Cover.wav

Пиковый уровень 99.4 % Качество диапазона 100.0 % CRC теста AAF0C62F CRC копии AAF0C62F Копирование... OK

Ошибок не произошло

AccurateRip: сводка

Трек 1 нет в базе данныхТрек 2 нет в базе данныхТрек 3 нет в базе данныхТрек 4 нет в базе данныхТрек 5 нет в базе данныхТрек 6 нет в базе данныхТрек 7 нет в базе данныхТрек 8 нет в базе данныхТрек 9 нет в базе данныхТрек 10 нет в базе данныхТрек 11 нет в базе данныхТрек 12 нет в базе данныхТрек 13 нет в базе данныхТрек 14 нет в базе данных

Ни одного трека нет в базе AccurateRip

Конец отчёта
The Pumps have gathered up the best of their rock'n'roll blues song list and put them on a studio recording "Cover To Cover". "She's Hot", written by band leader Buck Barrickman, is a good example of how the band blends rock and roll with the blues to create a party atmosphere that's carried throughout the album. The album starts off with "Rock This House" to set the tone and doesn't stop rockin' till the last of "Blues Attack".

The Pumps, based out of Eau Claire, WI. are veterans of the Midwest rock and blues scene playing fairs festivals and local bars creating a party time that gets everyone dancin' in their shoes and rockin' in their seats. We hope you'll enjoy this CD as much as their local fans enjoy the good times of their live performances.
Доп. информация: Очень хочется продолжить БЛЮЗ-МАРАФОН в Новом Году - присоединяйтесь!!!
С БЛЮЗом в Новом Году: новое имя - The Pumps!!!

Рип сделан собственноручно.
Сканы в папке.

Ознакомиться(прослушать) можно здесь

Рип от ©СЁРФ-Маrаtones aka izia1956

Трекер:  [ 27-Янв-2012 19:31 ]

  

Скачать .torrent

Размер .torrent файла 15 KB


Размер: 379 MB
Хэш (hash) релиза: df80a10a26ec7d82427e92c3edaa62c5e7022460

Еще никто не оставлял запись к записи скачать торрент The Pumps - Cover to Cover - 2011, FLAC . Будь первым!

!Обратная связь