Скачать через торрент музыку Dion - Tank Full Of Blues - 2012, FLAC бесплатно без регистрации torrent

Если у вас наблюдаются проблемы со скриншотами, переходом по ссылками, скачиванием торрентов - проблемы в блокировщике рекламы AdBlock. #хорошегоДня!


Статистика раздачи
Размер:  309 MB   |    Зарегистрирован:  5 лет 8 месяцев   |    .torrent скачан:  37 раз   |   
Раздают:  1  
   
Загрузка...
 
Автор Сообщение

Umakiro

avatar Umakiro


DION

Tank Full of Blues
Жанр: Blues-Rock
Страна-производитель диска: USA
Год издания диска: 2012
Год записи диска: 2011
Аудиокодек: FLAC (*.flac)
Тип рипа: image+.cue
Битрейт аудио: lossless
Продолжительность: 44:33
Источник (релизер): ©СЁРФ-Маrаtones aka izia1956
Наличие сканов в содержимом раздачи: да


01. Tank Full of Blues (4:14)
02. I Read It (in the Rolling Stone) (3:56)
03. Holly Brown (3:34)
04. Ride's Blues (for Robert Johnson) (4:41)
05. Two Train (4:05)
06. Do You Love Me Baby (3:48)
07. You Keep Me Cryin' (4:23)
08. My Michelle (3:51)
09. My Baby's Cryin' (3:39)
10. I'm Ready to Go (3:13)
11. Bronx Poem (5:03)
 
Exact Audio Copy V0.99 prebeta 4 from 23. January 2008

Отчёт EAC об извлечении, выполненном 24. января 2012, 20:06

Dion / Tank Full Of Blues

Дисковод: PLEXTOR DVDR PX-880SA Adapter: 1 ID: 1

Режим чтения : ДостоверностьИспользование точного потока : ДаОтключение кэша аудио : ДаИспользование указателей C2 : Нет

Коррекция смещения при чтении : 6Способность читать области Lead-in и Lead-out : НетЗаполнение пропущенных сэмплов тишиной : ДаУдаление блоков с тишиной в начале и конце : НетПри вычислениях CRC использовались нулевые сэмплы : ДаИнтерфейс : Встроенный Win32-интерфейс для Win NT/2000

Выходной формат : Пользовательский кодировщикВыбранный битрейт : 1024 kBit/sКачество : ВысокийДобавление ID3-тэга : НетУтилита сжатия : C:\Program Files\Exact Audio Copy\FLAC\FLAC.EXEДополнительные параметры : -6 -V -T "ARTIST=%a" -T "TITLE=%t" -T "ALBUM=%g" -T "DATE=%y" -T "TRACKNUMBER=%n" -T "GENRE=%m" -T "COMMENT=%e" %s -o %d

TOC извлечённого CD

Трек | Старт | Длительность | Начальный сектор | Конечный сектор --------------------------------------------------------------------- 1 | 0:00.00 | 4:14.15 | 0 | 19064 2 | 4:14.15 | 3:56.49 | 19065 | 36813 3 | 8:10.64 | 3:34.71 | 36814 | 52934 4 | 11:45.60 | 4:41.19 | 52935 | 74028 5 | 16:27.04 | 4:05.58 | 74029 | 92461 6 | 20:32.62 | 3:48.57 | 92462 | 109618 7 | 24:21.44 | 4:23.52 | 109619 | 129395 8 | 28:45.21 | 3:51.42 | 129396 | 146762 9 | 32:36.63 | 3:39.67 | 146763 | 163254 10 | 36:16.55 | 3:13.08 | 163255 | 177737 11 | 39:29.63 | 5:03.46 | 177738 | 200508

Характеристики диапазона извлечения и сообщения об ошибках

Выбранный диапазон

Имя файла J:\BitComet\Dion - Tank Full of Blues(2012)(flac)\Dion - Tank Full Of Blues.wav

Пиковый уровень 96.6 % Качество диапазона 99.9 % CRC теста E1261AB4 CRC копии E1261AB4 Копирование... OK

Ошибок не произошло

AccurateRip: сводка

Трек 1 нет в базе данныхТрек 2 нет в базе данныхТрек 3 нет в базе данныхТрек 4 нет в базе данныхТрек 5 нет в базе данныхТрек 6 нет в базе данныхТрек 7 нет в базе данныхТрек 8 нет в базе данныхТрек 9 нет в базе данныхТрек 10 нет в базе данныхТрек 11 нет в базе данных

Ни одного трека нет в базе AccurateRip

Конец отчёта
2012 album from the legendary Pop/Rock singer, songwriter and musical chameleon. A street poet and singer of extraordinary versatility, range and resonance, Dion defined Rock 'n' Roll for a generation. He is an artist who was inducted into the Rock and Roll Hall of Fame in 1989. Now Dion has returned to his deepest roots and influences to release his first Blues album with mostly original songs. His critically acclaimed 2007 Blues album Bronx In Blue was nominated for a Grammy. It is this latest album, however, that Dion considers the crown of his career. Tank Full Of Blues showcases his inexhaustible creativity and sheer exuberance, qualities that have made his music and his legend endure. Dion's never stopped making music, because people have never stopped listening. The man rocks, and he rocks on... with a tank full of blues in his heart.
Доп. информация: БЛЮЗ-МАРАФОН - " С БЛЮЗом по жизни" продолжается!!!
С БЛЮЗом в Новом Году: легенда Рок'н'ролла - DION!!!

Рип сделан собственноручно.
Фото ещё запечатанного СД.
Сканы в папке.

Ознакомиться(прослушать) можно здесь

Рип от ©СЁРФ-Маrаtones aka izia1956 ..............................

Трекер:  [ 27-Янв-2012 19:29 ]

  

Скачать .torrent

Размер .torrent файла 13 KB


Размер: 309 MB
Хэш (hash) релиза: 80fa77400730c861478cebfb07a118ea439b3e51

Еще никто не оставлял запись к записи скачать торрент Dion - Tank Full Of Blues - 2012, FLAC . Будь первым!

!Обратная связь