Скачать через торрент музыку Big Joe Turner - The Blues Boss - 1996, FLAC бесплатно без регистрации torrent

Если у вас наблюдаются проблемы со скриншотами, переходом по ссылками, скачиванием торрентов - проблемы в блокировщике рекламы AdBlock. #хорошегоДня!


Статистика раздачи
Размер:  414 MB   |    Зарегистрирован:  5 лет 8 месяцев   |    .torrent скачан:  30 раз   |   
Раздают:  1  
   
Загрузка...
 
Автор Сообщение

Umakiro

avatar Umakiro


Big Joe Turner - The Blues Boss

Жанр: blues
Страна-производитель диска: Germany
Год издания диска: 1996
Издатель (лейбл): Promo Sound AG
Номер по каталогу: CD 52008
Аудио кодек: FLAC (*.flac)
Тип рипа: image+.cue
Битрейт аудио: lossless
Продолжительность: 73:52
Источник (релизер): Чуланчик (релизер - zhconst)
Наличие сканов в содержимом раздачи: а как же?!
Треклист:
01. Roll 'Em Pete
02. Cherry Red
03. Morning Glories
04. How Long Blues
05. St Louis Blues
06. Piney Brown Blues
07. Ti-ri-lee
08. In The Evening
09. Midnight Cannonball
10. Sweet Sixteen
11. Low Down Dog
12. Wee Baby Blues
13. (We're Gonna) Jump For Joy
14. Poor Lover's Blues
15. The Chill Is On
16. TV Mama
17. Hollywood Bed
18. Miss Brown Blues
19. Chains Of Love
20. Don't You Cry
21. Married Woman
 
Exact Audio Copy V0.99 prebeta 4 from 23. January 2008

Отчёт EAC об извлечении, выполненном 30. сентября 2010, 0:56

Big Joe Turner / The Blues Boss

Дисковод: PIONEER DVD-RW DVR-110D Adapter: 1 ID: 1

Режим чтения : ДостоверностьИспользование точного потока : ДаОтключение кэша аудио : ДаИспользование указателей C2 : Нет

Коррекция смещения при чтении : 48Способность читать области Lead-in и Lead-out : НетЗаполнение пропущенных сэмплов тишиной : ДаУдаление блоков с тишиной в начале и конце : НетПри вычислениях CRC использовались нулевые сэмплы : ДаИнтерфейс : Встроенный Win32-интерфейс для Win NT/2000

Выходной формат : Пользовательский кодировщикВыбранный битрейт : 896 kBit/sКачество : ВысокийДобавление ID3-тэга : НетУтилита сжатия : C:\Program Files\Exact Audio Copy\FLAC\FLAC.EXEДополнительные параметры : -6 -V -T "ARTIST=%a" -T "TITLE=%t" -T "ALBUM=%g" -T "DATE=%y" -T "TRACKNUMBER=%n" -T "GENRE=%m" -T "COMMENT=%e" %s -o %d

TOC извлечённого CD

Трек | Старт | Длительность | Начальный сектор | Конечный сектор --------------------------------------------------------------------- 1 | 0:00.00 | 3:46.00 | 0 | 16949 2 | 3:46.00 | 3:25.42 | 16950 | 32366 3 | 7:11.42 | 2:13.65 | 32367 | 42406 4 | 9:25.32 | 5:50.73 | 42407 | 68729 5 | 15:16.30 | 4:22.67 | 68730 | 88446 6 | 19:39.22 | 4:56.13 | 88447 | 110659 7 | 24:35.35 | 2:56.17 | 110660 | 123876 8 | 27:31.52 | 5:04.28 | 123877 | 146704 9 | 32:36.05 | 2:31.15 | 146705 | 158044 10 | 35:07.20 | 2:57.67 | 158045 | 171386 11 | 38:05.12 | 3:41.28 | 171387 | 187989 12 | 41:46.40 | 7:19.02 | 187990 | 220916 13 | 49:05.42 | 2:07.53 | 220917 | 230494 14 | 51:13.20 | 2:40.32 | 230495 | 242526 15 | 53:53.52 | 2:46.23 | 242527 | 254999 16 | 56:40.00 | 2:47.67 | 255000 | 267591 17 | 59:27.67 | 2:45.60 | 267592 | 280026 18 | 62:13.52 | 2:54.03 | 280027 | 293079 19 | 65:07.55 | 3:23.22 | 293080 | 308326 20 | 68:31.02 | 2:30.23 | 308327 | 319599 21 | 71:01.25 | 2:50.20 | 319600 | 332369

Характеристики диапазона извлечения и сообщения об ошибках

Выбранный диапазон

Имя файла G:\Torrents\Big Joe Turner - The Blues Boss\Big Joe Turner - The Blues Boss.wav

Пиковый уровень 99.9 % Качество диапазона 100.0 % CRC теста 2EB4EE15 CRC копии 2EB4EE15 Копирование... OK

Ошибок не произошло

AccurateRip: сводка

Трек 1 нет в базе данныхТрек 2 нет в базе данныхТрек 3 нет в базе данныхТрек 4 нет в базе данныхТрек 5 нет в базе данныхТрек 6 нет в базе данныхТрек 7 нет в базе данныхТрек 8 нет в базе данныхТрек 9 нет в базе данныхТрек 10 нет в базе данныхТрек 11 нет в базе данныхТрек 12 нет в базе данныхТрек 13 нет в базе данныхТрек 14 нет в базе данныхТрек 15 нет в базе данныхТрек 16 нет в базе данныхТрек 17 нет в базе данныхТрек 18 нет в базе данныхТрек 19 нет в базе данныхТрек 20 нет в базе данныхТрек 21 нет в базе данных

Ни одного трека нет в базе AccurateRip

Конец отчёта


Трекер:  [ 27-Янв-2012 19:27 ]

  

Скачать .torrent

Размер .torrent файла 17 KB


Размер: 414 MB
Хэш (hash) релиза: dd908022e3db840bef720b69e70d44f38756772d

Еще никто не оставлял запись к записи скачать торрент Big Joe Turner - The Blues Boss - 1996, FLAC . Будь первым!

!Обратная связь