Скачать через торрент музыку Robert Johnson - The Complete Recordings бесплатно без регистрации torrent

Если у вас наблюдаются проблемы со скриншотами, переходом по ссылками, скачиванием торрентов - проблемы в блокировщике рекламы AdBlock. #хорошегоДня!


Статистика раздачи
Размер:  506 MB   |    Зарегистрирован:  5 лет 8 месяцев   |    .torrent скачан:  39 раз   |   
Раздают:  1  
   
Загрузка...
 
Автор Сообщение

Umakiro

avatar Umakiro


Robert Johnson - The Complete Recordings (The Centennial Collection 2CD)

Жанр: Delta Blues
Страна-производитель диска: USA
Год издания диска: 2011
Издатель (лейбл): Sony Legacy
Номер по каталогу: B004OFWLO0
Страна: USA
Аудио кодек: FLAC (*.flac)
Тип рипа: tracks+.cue
Битрейт аудио: lossless
Продолжительность: 01:01:07 +00:50:05
Источник (релизер): Honeybear53
Наличие сканов в содержимом раздачи: да
Robert Johnson
1. Kind Hearted Woman Blues [2:52]
2. I Believe I'll Dust My Broom [2:59]
3. Sweet Home Chicago [2:58]
4. Ramblin' on My Mind [2:22]
5. When You Got a Good Friend [2:37]
6. Come on in My Kitchen [2:44]
7. Terraplane Blues [3:00]
8. Phonograph Blues [2:40]
9. 32-20 Blues [2:50]
10. They're Red Hot [2:58]
11. Dead Shrimp Blues [2:31]
12. Cross Road Blues [2:40]
13. Walkin' Blues [2:30]
14. Last Fair Deal Gone Down [2:38]
15. Preachin' Blues (Up Jumped the Devil) [2:51]
16. If I Had Possession Over Judgment Day [2:35]
17. Kind Hearted Woman Blues [2:30]
18. Ramblin' on My Mind [2:51]
19. When You Got a Good Friend [2:52]
20. Come on in My Kitchen [2:52]
21. Phonograph Blues [2:33]
22. Cross Road Blues [2:32]
1 Stones in My Passway [2:29]
2. I'm a Steady Rollin' Man [2:37]
3. From Four Until Late [2:24]
4. Hell Hound on My Trail [2:37]
5. Little Queen of Spades [2:13]
6. Malted Milk [2:22]
7. Drunken Hearted Man [2:29]
8. Me and the Devil Blues [2:35]
9. Stop Breakin' Down Blues [2:23]
10. Traveling Riverside Blues [2:40]
11. Honeymoon Blues [2:18]
12. Love in Vain Blues [2:18]
13. Milkcow's Calf Blues [2:21]
14. Little Queen of Spades, A [2:20]
15. Drunken Hearted Man [2:27]
16. Me and the Devil Blues [2:33]
17. Stop Breakin' Down Blues [2:18]
18. Traveling Riverside Blues [2:53]
19. Love in Vain Blues [2:26]
20. Milkcow's Calf Blues [2:18]
Exact Audio Copy V1.0 beta 1 from 15. November 2010

EAC extraction logfile from 18. May 2011, 11:21

Robert Johnson / Centennial Collection, Disc 1

Used drive : ATAPI DVD A DH20A4P Adapter: 3 ID: 0

Read mode : Secure
Utilize accurate stream : Yes
Defeat audio cache : Yes
Make use of C2 pointers : No

Read offset correction : 6
Overread into Lead-In and Lead-Out : No
Fill up missing offset samples with silence : Yes
Delete leading and trailing silent blocks : No
Null samples used in CRC calculations : No
Used interface : Native Win32 interface for Win NT & 2000
Gap handling : Appended to previous track

Used output format : User Defined Encoder
Selected bitrate : 768 kBit/s
Quality : High
Add ID3 tag : No
Command line compressor : C:\Program Files\Exact Audio Copy\FLAC\FLAC.EXE
Additional command line options : -8 -V -T "ARTIST=%a" -T "TITLE=%t" -T "ALBUM=%g" -T "DATE=%y" -T "TRACKNUMBER=%n" -T "GENRE=%m" -T "COMMENT=%e" %j--picture="%i"%j %s -o %d

TOC of the extracted CD

Track | Start | Length | Start sector | End sector
---------------------------------------------------------
1 | 0:00.00 | 2:55.16 | 0 | 13140
2 | 2:55.16 | 3:02.23 | 13141 | 26813
3 | 5:57.39 | 3:01.54 | 26814 | 40442
4 | 8:59.18 | 2:25.07 | 40443 | 51324
5 | 11:24.25 | 2:40.46 | 51325 | 63370
6 | 14:04.71 | 2:47.28 | 63371 | 75923
7 | 16:52.24 | 3:03.17 | 75924 | 89665
8 | 19:55.41 | 2:43.10 | 89666 | 101900
9 | 22:38.51 | 2:53.04 | 101901 | 114879
10 | 25:31.55 | 3:01.47 | 114880 | 128501
11 | 28:33.27 | 2:34.50 | 128502 | 140101
12 | 31:08.02 | 2:43.25 | 140102 | 152351
13 | 33:51.27 | 2:33.10 | 152352 | 163836
14 | 36:24.37 | 2:41.32 | 163837 | 175943
15 | 39:05.69 | 2:54.39 | 175944 | 189032
16 | 42:00.33 | 2:40.12 | 189033 | 201044
17 | 44:40.45 | 2:33.25 | 201045 | 212544
18 | 47:13.70 | 2:54.54 | 212545 | 225648
19 | 50:08.49 | 2:55.05 | 225649 | 238778
20 | 53:03.54 | 2:55.03 | 238779 | 251906
21 | 55:58.57 | 2:36.44 | 251907 | 263650
22 | 58:35.26 | 2:32.05 | 263651 | 275055

Track 1

Filename C:\My Rips\Robert Johnson - Centennial Collection, Disc 1\01 - Kind Hearted Woman Blues.wav

Pre-gap length 0:00:02.00

Peak level 71.1 %
Extraction speed 4.4 X
Track quality 100.0 %
Copy CRC FC35918F
Track not present in AccurateRip database
Copy OK

Track 2

Filename C:\My Rips\Robert Johnson - Centennial Collection, Disc 1\02 - I Believe I'll Dust My Broom.wav

Pre-gap length 0:00:02.61

Peak level 71.5 %
Extraction speed 4.4 X
Track quality 99.9 %
Copy CRC AA0F1A9C
Track not present in AccurateRip database
Copy OK

Track 3

Filename C:\My Rips\Robert Johnson - Centennial Collection, Disc 1\03 - Sweet Home Chicago.wav

Pre-gap length 0:00:02.61

Peak level 80.8 %
Extraction speed 5.7 X
Track quality 100.0 %
Copy CRC 7D449DCB
Track not present in AccurateRip database
Copy OK

Track 4

Filename C:\My Rips\Robert Johnson - Centennial Collection, Disc 1\04 - Ramblin' on My Mind.wav

Pre-gap length 0:00:02.61

Peak level 71.5 %
Extraction speed 4.7 X
Track quality 99.9 %
Copy CRC D07ADD1A
Track not present in AccurateRip database
Copy OK

Track 5

Filename C:\My Rips\Robert Johnson - Centennial Collection, Disc 1\05 - When You Got a Good Friend.wav

Pre-gap length 0:00:02.60

Peak level 85.6 %
Extraction speed 6.3 X
Track quality 100.0 %
Copy CRC 231BF61F
Track not present in AccurateRip database
Copy OK

Track 6

Filename C:\My Rips\Robert Johnson - Centennial Collection, Disc 1\06 - Come on in My Kitchen.wav

Pre-gap length 0:00:02.61

Peak level 75.8 %
Extraction speed 5.5 X
Track quality 99.9 %
Copy CRC 2F7193FA
Track not present in AccurateRip database
Copy OK

Track 7

Filename C:\My Rips\Robert Johnson - Centennial Collection, Disc 1\07 - Terraplane Blues.wav

Pre-gap length 0:00:02.60

Peak level 93.7 %
Extraction speed 7.0 X
Track quality 100.0 %
Copy CRC 054509EB
Track not present in AccurateRip database
Copy OK

Track 8

Filename C:\My Rips\Robert Johnson - Centennial Collection, Disc 1\08 - Phonograph Blues.wav

Pre-gap length 0:00:02.57

Peak level 84.3 %
Extraction speed 7.3 X
Track quality 100.0 %
Copy CRC 46C25A59
Track not present in AccurateRip database
Copy OK

Track 9

Filename C:\My Rips\Robert Johnson - Centennial Collection, Disc 1\09 - 32-20 Blues.wav

Pre-gap length 0:00:02.61

Peak level 75.6 %
Extraction speed 7.6 X
Track quality 100.0 %
Copy CRC 7EFB6534
Track not present in AccurateRip database
Copy OK

Track 10

Filename C:\My Rips\Robert Johnson - Centennial Collection, Disc 1\10 - They're Red Hot.wav

Pre-gap length 0:00:02.60

Peak level 68.4 %
Extraction speed 6.5 X
Track quality 99.9 %
Copy CRC 7D61B51D
Track not present in AccurateRip database
Copy OK

Track 11

Filename C:\My Rips\Robert Johnson - Centennial Collection, Disc 1\11 - Dead Shrimp Blues.wav

Pre-gap length 0:00:02.61

Peak level 64.5 %
Extraction speed 7.8 X
Track quality 100.0 %
Copy CRC D42DFB88
Track not present in AccurateRip database
Copy OK

Track 12

Filename C:\My Rips\Robert Johnson - Centennial Collection, Disc 1\12 - Cross Road Blues.wav

Pre-gap length 0:00:02.61

Peak level 83.5 %
Extraction speed 8.3 X
Track quality 100.0 %
Copy CRC 537139BA
Track not present in AccurateRip database
Copy OK

Track 13

Filename C:\My Rips\Robert Johnson - Centennial Collection, Disc 1\13 - Walkin' Blues.wav

Pre-gap length 0:00:02.61

Peak level 79.4 %
Extraction speed 8.4 X
Track quality 100.0 %
Copy CRC 1B092B09
Track not present in AccurateRip database
Copy OK

Track 14

Filename C:\My Rips\Robert Johnson - Centennial Collection, Disc 1\14 - Last Fair Deal Gone Down.wav

Pre-gap length 0:00:02.61

Peak level 72.1 %
Extraction speed 8.7 X
Track quality 100.0 %
Copy CRC AA521409
Track not present in AccurateRip database
Copy OK

Track 15

Filename C:\My Rips\Robert Johnson - Centennial Collection, Disc 1\15 - Preachin' Blues (Up Jumped the Devil).wav

Pre-gap length 0:00:02.61

Peak level 70.0 %
Extraction speed 9.1 X
Track quality 100.0 %
Copy CRC 40338DD9
Track not present in AccurateRip database
Copy OK

Track 16

Filename C:\My Rips\Robert Johnson - Centennial Collection, Disc 1\16 - If I Had Possession Over Judgment Day.wav

Pre-gap length 0:00:02.61

Peak level 84.7 %
Extraction speed 9.1 X
Track quality 100.0 %
Copy CRC 1242894C
Track not present in AccurateRip database
Copy OK

Track 17

Filename C:\My Rips\Robert Johnson - Centennial Collection, Disc 1\17 - Kind Hearted Woman Blues.wav

Pre-gap length 0:00:04.61

Peak level 64.6 %
Extraction speed 9.2 X
Track quality 100.0 %
Copy CRC 1128B0FF
Track not present in AccurateRip database
Copy OK

Track 18

Filename C:\My Rips\Robert Johnson - Centennial Collection, Disc 1\18 - Ramblin' on My Mind.wav

Pre-gap length 0:00:02.61

Peak level 73.7 %
Extraction speed 9.6 X
Track quality 100.0 %
Copy CRC 2561FCA1
Track not present in AccurateRip database
Copy OK

Track 19

Filename C:\My Rips\Robert Johnson - Centennial Collection, Disc 1\19 - When You Got a Good Friend.wav

Pre-gap length 0:00:02.60

Peak level 66.9 %
Extraction speed 9.8 X
Track quality 100.0 %
Copy CRC 31ABCCFF
Track not present in AccurateRip database
Copy OK

Track 20

Filename C:\My Rips\Robert Johnson - Centennial Collection, Disc 1\20 - Come on in My Kitchen.wav

Pre-gap length 0:00:02.60

Peak level 73.4 %
Extraction speed 10.0 X
Track quality 100.0 %
Copy CRC 677AD106
Track not present in AccurateRip database
Copy OK

Track 21

Filename C:\My Rips\Robert Johnson - Centennial Collection, Disc 1\21 - Phonograph Blues.wav

Pre-gap length 0:00:02.61

Peak level 56.8 %
Extraction speed 10.1 X
Track quality 100.0 %
Copy CRC 747752B6
Track not present in AccurateRip database
Copy OK

Track 22

Filename C:\My Rips\Robert Johnson - Centennial Collection, Disc 1\22 - Cross Road Blues.wav

Pre-gap length 0:00:02.61

Peak level 65.7 %
Extraction speed 10.0 X
Track quality 100.0 %
Copy CRC D6D2690A
Track not present in AccurateRip database
Copy OK

None of the tracks are present in the AccurateRip database

No errors occurred

End of status report
Exact Audio Copy V1.0 beta 1 from 15. November 2010

EAC extraction logfile from 18. May 2011, 12:18

Robert Johnson / Centennial Collection, Disc 2

Used drive : ATAPI DVD A DH20A4P Adapter: 3 ID: 0

Read mode : Secure
Utilize accurate stream : Yes
Defeat audio cache : Yes
Make use of C2 pointers : No

Read offset correction : 6
Overread into Lead-In and Lead-Out : No
Fill up missing offset samples with silence : Yes
Delete leading and trailing silent blocks : No
Null samples used in CRC calculations : No
Used interface : Native Win32 interface for Win NT & 2000
Gap handling : Appended to previous track

Used output format : User Defined Encoder
Selected bitrate : 768 kBit/s
Quality : High
Add ID3 tag : No
Command line compressor : C:\Program Files\Exact Audio Copy\FLAC\FLAC.EXE
Additional command line options : -8 -V -T "ARTIST=%a" -T "TITLE=%t" -T "ALBUM=%g" -T "DATE=%y" -T "TRACKNUMBER=%n" -T "GENRE=%m" -T "COMMENT=%e" %j--picture="%i"%j %s -o %d

TOC of the extracted CD

Track | Start | Length | Start sector | End sector
---------------------------------------------------------
1 | 0:00.00 | 2:31.62 | 0 | 11386
2 | 2:31.62 | 2:40.12 | 11387 | 23398
3 | 5:11.74 | 2:27.44 | 23399 | 34467
4 | 7:39.43 | 2:40.19 | 34468 | 46486
5 | 10:19.62 | 2:16.00 | 46487 | 56686
6 | 12:35.62 | 2:24.62 | 56687 | 67548
7 | 15:00.49 | 2:32.29 | 67549 | 78977
8 | 17:33.03 | 2:38.12 | 78978 | 90839
9 | 20:11.15 | 2:26.22 | 90840 | 101811
10 | 22:37.37 | 2:42.69 | 101812 | 114030
11 | 25:20.31 | 2:20.57 | 114031 | 124587
12 | 27:41.13 | 2:21.10 | 124588 | 135172
13 | 30:02.23 | 2:26.32 | 135173 | 146154
14 | 32:28.55 | 2:23.44 | 146155 | 156923
15 | 34:52.24 | 2:30.49 | 156924 | 168222
16 | 37:22.73 | 2:36.50 | 168223 | 179972
17 | 39:59.48 | 2:21.25 | 179973 | 190572
18 | 42:20.73 | 2:56.05 | 190573 | 203777
19 | 45:17.03 | 2:29.07 | 203778 | 214959
20 | 47:46.10 | 2:18.67 | 214960 | 225376

Track 1

Filename C:\My Rips\Robert Johnson - Centennial Collection, Disc 2\01 - Stones in My Passway.wav

Pre-gap length 0:00:02.00

Peak level 87.0 %
Extraction speed 4.4 X
Track quality 100.0 %
Copy CRC 78F50E04
Track not present in AccurateRip database
Copy OK

Track 2

Filename C:\My Rips\Robert Johnson - Centennial Collection, Disc 2\02 - I'm a Steady Rollin' Man.wav

Pre-gap length 0:00:02.58

Peak level 61.3 %
Extraction speed 5.2 X
Track quality 100.0 %
Copy CRC 061EDB5D
Track not present in AccurateRip database
Copy OK

Track 3

Filename C:\My Rips\Robert Johnson - Centennial Collection, Disc 2\03 - From Four Until Late.wav

Pre-gap length 0:00:02.58

Peak level 73.1 %
Extraction speed 5.5 X
Track quality 100.0 %
Copy CRC FB21C75A
Track not present in AccurateRip database
Copy OK

Track 4

Filename C:\My Rips\Robert Johnson - Centennial Collection, Disc 2\04 - Hell Hound on My Trail.wav

Pre-gap length 0:00:02.58

Peak level 70.8 %
Extraction speed 5.9 X
Track quality 100.0 %
Copy CRC A1739346
Track not present in AccurateRip database
Copy OK

Track 5

Filename C:\My Rips\Robert Johnson - Centennial Collection, Disc 2\05 - Little Queen of Spades.wav

Pre-gap length 0:00:02.58

Peak level 75.5 %
Extraction speed 6.0 X
Track quality 100.0 %
Copy CRC EF2E2089
Track not present in AccurateRip database
Copy OK

Track 6

Filename C:\My Rips\Robert Johnson - Centennial Collection, Disc 2\06 - Malted Milk.wav

Pre-gap length 0:00:02.58

Peak level 77.6 %
Extraction speed 5.7 X
Track quality 100.0 %
Copy CRC 7504B507
Track not present in AccurateRip database
Copy OK

Track 7

Filename C:\My Rips\Robert Johnson - Centennial Collection, Disc 2\07 - Drunken Hearted Man.wav

Pre-gap length 0:00:02.58

Peak level 69.5 %
Extraction speed 5.6 X
Track quality 100.0 %
Copy CRC 0A057FB9
Track not present in AccurateRip database
Copy OK

Track 8

Filename C:\My Rips\Robert Johnson - Centennial Collection, Disc 2\08 - Me and the Devil Blues.wav

Pre-gap length 0:00:02.58

Peak level 74.2 %
Extraction speed 5.8 X
Track quality 100.0 %
Copy CRC 75725A69
Track not present in AccurateRip database
Copy OK

Track 9

Filename C:\My Rips\Robert Johnson - Centennial Collection, Disc 2\09 - Stop Breakin' Down Blues.wav

Pre-gap length 0:00:02.58

Peak level 91.0 %
Extraction speed 7.1 X
Track quality 100.0 %
Copy CRC BD74D0E4
Track not present in AccurateRip database
Copy OK

Track 10

Filename C:\My Rips\Robert Johnson - Centennial Collection, Disc 2\10 - Traveling Riverside Blues.wav

Pre-gap length 0:00:02.58

Peak level 71.2 %
Extraction speed 7.5 X
Track quality 100.0 %
Copy CRC 6F63E70B
Track not present in AccurateRip database
Copy OK

Track 11

Filename C:\My Rips\Robert Johnson - Centennial Collection, Disc 2\11 - Honeymoon Blues.wav

Pre-gap length 0:00:02.58

Peak level 78.7 %
Extraction speed 6.0 X
Track quality 99.9 %
Copy CRC 1741DF78
Track not present in AccurateRip database
Copy OK

Track 12

Filename C:\My Rips\Robert Johnson - Centennial Collection, Disc 2\12 - Love in Vain Blues.wav

Pre-gap length 0:00:02.58

Peak level 82.8 %
Extraction speed 6.1 X
Track quality 99.9 %
Copy CRC D357F73D
Track not present in AccurateRip database
Copy OK

Track 13

Filename C:\My Rips\Robert Johnson - Centennial Collection, Disc 2\13 - Milkcow's Calf Blues.wav

Pre-gap length 0:00:02.58

Peak level 89.2 %
Extraction speed 5.8 X
Track quality 99.9 %
Copy CRC 21C7A128
Track not present in AccurateRip database
Copy OK

Track 14

Filename C:\My Rips\Robert Johnson - Centennial Collection, Disc 2\14 - A Little Queen of Spades.wav

Pre-gap length 0:00:04.58

Peak level 79.2 %
Extraction speed 6.5 X
Track quality 100.0 %
Copy CRC 22C62394
Track not present in AccurateRip database
Copy OK

Track 15

Filename C:\My Rips\Robert Johnson - Centennial Collection, Disc 2\15 - Drunken Hearted Man.wav

Pre-gap length 0:00:02.53

Peak level 80.5 %
Extraction speed 8.0 X
Track quality 100.0 %
Copy CRC 92A8C8FE
Track not present in AccurateRip database
Copy OK

Track 16

Filename C:\My Rips\Robert Johnson - Centennial Collection, Disc 2\16 - Me and the Devil Blues.wav

Pre-gap length 0:00:02.58

Peak level 79.5 %
Extraction speed 8.8 X
Track quality 100.0 %
Copy CRC 0E49750A
Track not present in AccurateRip database
Copy OK

Track 17

Filename C:\My Rips\Robert Johnson - Centennial Collection, Disc 2\17 - Stop Breakin' Down Blues.wav

Pre-gap length 0:00:02.58

Peak level 90.0 %
Extraction speed 8.7 X
Track quality 100.0 %
Copy CRC A4E90DED
Track not present in AccurateRip database
Copy OK

Track 18

Filename C:\My Rips\Robert Johnson - Centennial Collection, Disc 2\18 - Guitar Figure [Test Groove Before Traveling Riverside Blues],Traveling.wav

Pre-gap length 0:00:02.57

Peak level 92.0 %
Extraction speed 9.2 X
Track quality 100.0 %
Copy CRC CFFCEE61
Track not present in AccurateRip database
Copy OK

Track 19

Filename C:\My Rips\Robert Johnson - Centennial Collection, Disc 2\19 - Johnson Speaks [Test Groove Before Love in Vain Blues],Love in Vain Blu.wav

Pre-gap length 0:00:02.58

Peak level 89.1 %
Extraction speed 7.3 X
Track quality 99.9 %
Copy CRC 38E29B74
Track not present in AccurateRip database
Copy OK

Track 20

Filename C:\My Rips\Robert Johnson - Centennial Collection, Disc 2\20 - Milkcow's Calf Blues.wav

Pre-gap length 0:00:02.57

Peak level 82.8 %
Extraction speed 9.2 X
Track quality 100.0 %
Copy CRC F815FA6E
Track not present in AccurateRip database
Copy OK

None of the tracks are present in the AccurateRip database

No errors occurred

End of status report
REM GENRE Blues
REM DATE 2011
REM DISCID 280E5316
REM COMMENT "ExactAudioCopy v1.0b1"
PERFORMER "Robert Johnson"
TITLE "Centennial Collection, Disc 1"
FILE "01 - Kind Hearted Woman Blues.wav" WAVE
TRACK 01 AUDIO
TITLE "Kind Hearted Woman Blues"
PERFORMER "Robert Johnson"
INDEX 01 00:00:00
TRACK 02 AUDIO
TITLE "I Believe I'll Dust My Broom"
PERFORMER "Robert Johnson"
INDEX 00 02:52:30
FILE "02 - I Believe I'll Dust My Broom.wav" WAVE
INDEX 01 00:00:00
TRACK 03 AUDIO
TITLE "Sweet Home Chicago"
PERFORMER "Robert Johnson"
INDEX 00 02:59:37
FILE "03 - Sweet Home Chicago.wav" WAVE
INDEX 01 00:00:00
TRACK 04 AUDIO
TITLE "Ramblin' on My Mind"
PERFORMER "Robert Johnson"
INDEX 00 02:58:68
FILE "04 - Ramblin' on My Mind.wav" WAVE
INDEX 01 00:00:00
TRACK 05 AUDIO
TITLE "When You Got a Good Friend"
PERFORMER "Robert Johnson"
INDEX 00 02:22:22
FILE "05 - When You Got a Good Friend.wav" WAVE
INDEX 01 00:00:00
TRACK 06 AUDIO
TITLE "Come on in My Kitchen"
PERFORMER "Robert Johnson"
INDEX 00 02:37:60
FILE "06 - Come on in My Kitchen.wav" WAVE
INDEX 01 00:00:00
TRACK 07 AUDIO
TITLE "Terraplane Blues"
PERFORMER "Robert Johnson"
INDEX 00 02:44:43
FILE "07 - Terraplane Blues.wav" WAVE
INDEX 01 00:00:00
TRACK 08 AUDIO
TITLE "Phonograph Blues"
PERFORMER "Robert Johnson"
INDEX 00 03:00:35
FILE "08 - Phonograph Blues.wav" WAVE
INDEX 01 00:00:00
TRACK 09 AUDIO
TITLE "32-20 Blues"
PERFORMER "Robert Johnson"
INDEX 00 02:40:24
FILE "09 - 32-20 Blues.wav" WAVE
INDEX 01 00:00:00
TRACK 10 AUDIO
TITLE "They're Red Hot"
PERFORMER "Robert Johnson"
INDEX 00 02:50:19
FILE "10 - They're Red Hot.wav" WAVE
INDEX 01 00:00:00
TRACK 11 AUDIO
TITLE "Dead Shrimp Blues"
PERFORMER "Robert Johnson"
INDEX 00 02:58:61
FILE "11 - Dead Shrimp Blues.wav" WAVE
INDEX 01 00:00:00
TRACK 12 AUDIO
TITLE "Cross Road Blues"
PERFORMER "Robert Johnson"
INDEX 00 02:31:64
FILE "12 - Cross Road Blues.wav" WAVE
INDEX 01 00:00:00
TRACK 13 AUDIO
TITLE "Walkin' Blues"
PERFORMER "Robert Johnson"
INDEX 00 02:40:39
FILE "13 - Walkin' Blues.wav" WAVE
INDEX 01 00:00:00
TRACK 14 AUDIO
TITLE "Last Fair Deal Gone Down"
PERFORMER "Robert Johnson"
INDEX 00 02:30:24
FILE "14 - Last Fair Deal Gone Down.wav" WAVE
INDEX 01 00:00:00
TRACK 15 AUDIO
TITLE "Preachin' Blues (Up Jumped the Devil)"
PERFORMER "Robert Johnson"
INDEX 00 02:38:46
FILE "15 - Preachin' Blues (Up Jumped the Devil).wav" WAVE
INDEX 01 00:00:00
TRACK 16 AUDIO
TITLE "If I Had Possession Over Judgment Day"
PERFORMER "Robert Johnson"
INDEX 00 02:51:53
FILE "16 - If I Had Possession Over Judgment Day.wav" WAVE
INDEX 01 00:00:00
TRACK 17 AUDIO
TITLE "Kind Hearted Woman Blues"
PERFORMER "Robert Johnson"
INDEX 00 02:35:26
FILE "17 - Kind Hearted Woman Blues.wav" WAVE
INDEX 01 00:00:00
TRACK 18 AUDIO
TITLE "Ramblin' on My Mind"
PERFORMER "Robert Johnson"
INDEX 00 02:30:39
FILE "18 - Ramblin' on My Mind.wav" WAVE
INDEX 01 00:00:00
TRACK 19 AUDIO
TITLE "When You Got a Good Friend"
PERFORMER "Robert Johnson"
INDEX 00 02:51:69
FILE "19 - When You Got a Good Friend.wav" WAVE
INDEX 01 00:00:00
TRACK 20 AUDIO
TITLE "Come on in My Kitchen"
PERFORMER "Robert Johnson"
INDEX 00 02:52:20
FILE "20 - Come on in My Kitchen.wav" WAVE
INDEX 01 00:00:00
TRACK 21 AUDIO
TITLE "Phonograph Blues"
PERFORMER "Robert Johnson"
INDEX 00 02:52:17
FILE "21 - Phonograph Blues.wav" WAVE
INDEX 01 00:00:00
TRACK 22 AUDIO
TITLE "Cross Road Blues"
PERFORMER "Robert Johnson"
INDEX 00 02:33:58
FILE "22 - Cross Road Blues.wav" WAVE
INDEX 01 00:00:00
EM GENRE Blues
REM DATE 2011
REM DISCID F80BBD14
REM COMMENT "ExactAudioCopy v1.0b1"
PERFORMER "Robert Johnson"
TITLE "Centennial Collection, Disc 2"
FILE "01 - Stones in My Passway.wav" WAVE
TRACK 01 AUDIO
TITLE "Stones in My Passway"
PERFORMER "Robert Johnson"
INDEX 01 00:00:00
TRACK 02 AUDIO
TITLE "I'm a Steady Rollin' Man"
PERFORMER "Robert Johnson"
INDEX 00 02:29:03
FILE "02 - I'm a Steady Rollin' Man.wav" WAVE
INDEX 01 00:00:00
TRACK 03 AUDIO
TITLE "From Four Until Late"
PERFORMER "Robert Johnson"
INDEX 00 02:37:28
FILE "03 - From Four Until Late.wav" WAVE
INDEX 01 00:00:00
TRACK 04 AUDIO
TITLE "Hell Hound on My Trail"
PERFORMER "Robert Johnson"
INDEX 00 02:24:60
FILE "04 - Hell Hound on My Trail.wav" WAVE
INDEX 01 00:00:00
TRACK 05 AUDIO
TITLE "Little Queen of Spades"
PERFORMER "Robert Johnson"
INDEX 00 02:37:35
FILE "05 - Little Queen of Spades.wav" WAVE
INDEX 01 00:00:00
TRACK 06 AUDIO
TITLE "Malted Milk"
PERFORMER "Robert Johnson"
INDEX 00 02:13:16
FILE "06 - Malted Milk.wav" WAVE
INDEX 01 00:00:00
TRACK 07 AUDIO
TITLE "Drunken Hearted Man"
PERFORMER "Robert Johnson"
INDEX 00 02:22:03
FILE "07 - Drunken Hearted Man.wav" WAVE
INDEX 01 00:00:00
TRACK 08 AUDIO
TITLE "Me and the Devil Blues"
PERFORMER "Robert Johnson"
INDEX 00 02:29:45
FILE "08 - Me and the Devil Blues.wav" WAVE
INDEX 01 00:00:00
TRACK 09 AUDIO
TITLE "Stop Breakin' Down Blues"
PERFORMER "Robert Johnson"
INDEX 00 02:35:28
FILE "09 - Stop Breakin' Down Blues.wav" WAVE
INDEX 01 00:00:00
TRACK 10 AUDIO
TITLE "Traveling Riverside Blues"
PERFORMER "Robert Johnson"
INDEX 00 02:23:38
FILE "10 - Traveling Riverside Blues.wav" WAVE
INDEX 01 00:00:00
TRACK 11 AUDIO
TITLE "Honeymoon Blues"
PERFORMER "Robert Johnson"
INDEX 00 02:40:10
FILE "11 - Honeymoon Blues.wav" WAVE
INDEX 01 00:00:00
TRACK 12 AUDIO
TITLE "Love in Vain Blues"
PERFORMER "Robert Johnson"
INDEX 00 02:17:73
FILE "12 - Love in Vain Blues.wav" WAVE
INDEX 01 00:00:00
TRACK 13 AUDIO
TITLE "Milkcow's Calf Blues"
PERFORMER "Robert Johnson"
INDEX 00 02:18:26
FILE "13 - Milkcow's Calf Blues.wav" WAVE
INDEX 01 00:00:00
TRACK 14 AUDIO
TITLE "A Little Queen of Spades"
PERFORMER "Robert Johnson"
INDEX 00 02:21:48
FILE "14 - A Little Queen of Spades.wav" WAVE
INDEX 01 00:00:00
TRACK 15 AUDIO
TITLE "Drunken Hearted Man"
PERFORMER "Robert Johnson"
INDEX 00 02:20:61
FILE "15 - Drunken Hearted Man.wav" WAVE
INDEX 01 00:00:00
TRACK 16 AUDIO
TITLE "Me and the Devil Blues"
PERFORMER "Robert Johnson"
INDEX 00 02:27:65
FILE "16 - Me and the Devil Blues.wav" WAVE
INDEX 01 00:00:00
TRACK 17 AUDIO
TITLE "Stop Breakin' Down Blues"
PERFORMER "Robert Johnson"
INDEX 00 02:33:68
FILE "17 - Stop Breakin' Down Blues.wav" WAVE
INDEX 01 00:00:00
TRACK 18 AUDIO
TITLE "Guitar Figure [Test Groove Before Traveling Riverside Blues]/Traveling"
PERFORMER "Robert Johnson"
INDEX 00 02:18:41
FILE "18 - Guitar Figure [Test Groove Before Traveling Riverside Blues],Traveling.wav" WAVE
INDEX 01 00:00:00
TRACK 19 AUDIO
TITLE "Johnson Speaks [Test Groove Before Love in Vain Blues]/Love in Vain Blu"
PERFORMER "Robert Johnson"
INDEX 00 02:53:21
FILE "19 - Johnson Speaks [Test Groove Before Love in Vain Blues],Love in Vain Blu.wav" WAVE
INDEX 01 00:00:00
TRACK 20 AUDIO
TITLE "Milkcow's Calf Blues"
PERFORMER "Robert Johnson"
INDEX 00 02:26:23
FILE "20 - Milkcow's Calf Blues.wav" WAVE
INDEX 01 00:00:00
AUDIOCHECKER v2.0 beta (build 457) - by Dester - opdester@freemail.hu
~~~~~~~~~~~~~~~~~~~~~~~~~~~~~~~~~~

Started at: воскресенье, 22. 05. 2011. - 18:04.56
22 files found

01 -===- E:\Скач торент\Robert Johnson - The Complete Recordings (The Centenial Collection 2CD) [2011]\Robert Johnson - Centennial Collection, Disc 1\01 - Kind Hearted Woman Blues.flac
Extracted successfully
Conclusion: this track is CDDA with probability 100%
Tempfile successfully deleted.

02 -===- E:\Скач торент\Robert Johnson - The Complete Recordings (The Centenial Collection 2CD) [2011]\Robert Johnson - Centennial Collection, Disc 1\02 - I Believe I'll Dust My Broom.flac
Extracted successfully
Conclusion: this track is CDDA with probability 100%
Tempfile successfully deleted.

03 -===- E:\Скач торент\Robert Johnson - The Complete Recordings (The Centenial Collection 2CD) [2011]\Robert Johnson - Centennial Collection, Disc 1\03 - Sweet Home Chicago.flac
Extracted successfully
Conclusion: this track is CDDA with probability 100%
Tempfile successfully deleted.

04 -===- E:\Скач торент\Robert Johnson - The Complete Recordings (The Centenial Collection 2CD) [2011]\Robert Johnson - Centennial Collection, Disc 1\04 - Ramblin' on My Mind.flac
Extracted successfully
Conclusion: this track is CDDA with probability 100%
Tempfile successfully deleted.

05 -===- E:\Скач торент\Robert Johnson - The Complete Recordings (The Centenial Collection 2CD) [2011]\Robert Johnson - Centennial Collection, Disc 1\05 - When You Got a Good Friend.flac
Extracted successfully
Conclusion: this track is CDDA with probability 100%
Tempfile successfully deleted.

06 -===- E:\Скач торент\Robert Johnson - The Complete Recordings (The Centenial Collection 2CD) [2011]\Robert Johnson - Centennial Collection, Disc 1\06 - Come on in My Kitchen.flac
Extracted successfully
Conclusion: this track is CDDA with probability 100%
Tempfile successfully deleted.

07 -===- E:\Скач торент\Robert Johnson - The Complete Recordings (The Centenial Collection 2CD) [2011]\Robert Johnson - Centennial Collection, Disc 1\07 - Terraplane Blues.flac
Extracted successfully
Conclusion: this track is CDDA with probability 100%
Tempfile successfully deleted.

08 -===- E:\Скач торент\Robert Johnson - The Complete Recordings (The Centenial Collection 2CD) [2011]\Robert Johnson - Centennial Collection, Disc 1\08 - Phonograph Blues.flac
Extracted successfully
Conclusion: this track is CDDA with probability 100%
Tempfile successfully deleted.

09 -===- E:\Скач торент\Robert Johnson - The Complete Recordings (The Centenial Collection 2CD) [2011]\Robert Johnson - Centennial Collection, Disc 1\09 - 32-20 Blues.flac
Extracted successfully
Conclusion: this track is CDDA with probability 100%
Tempfile successfully deleted.

10 -===- E:\Скач торент\Robert Johnson - The Complete Recordings (The Centenial Collection 2CD) [2011]\Robert Johnson - Centennial Collection, Disc 1\10 - They're Red Hot.flac
Extracted successfully
Conclusion: this track is CDDA with probability 100%
Tempfile successfully deleted.

11 -===- E:\Скач торент\Robert Johnson - The Complete Recordings (The Centenial Collection 2CD) [2011]\Robert Johnson - Centennial Collection, Disc 1\11 - Dead Shrimp Blues.flac
Extracted successfully
Conclusion: this track is CDDA with probability 100%
Tempfile successfully deleted.

12 -===- E:\Скач торент\Robert Johnson - The Complete Recordings (The Centenial Collection 2CD) [2011]\Robert Johnson - Centennial Collection, Disc 1\12 - Cross Road Blues.flac
Extracted successfully
Conclusion: this track is CDDA with probability 100%
Tempfile successfully deleted.

13 -===- E:\Скач торент\Robert Johnson - The Complete Recordings (The Centenial Collection 2CD) [2011]\Robert Johnson - Centennial Collection, Disc 1\13 - Walkin' Blues.flac
Extracted successfully
Conclusion: this track is CDDA with probability 100%
Tempfile successfully deleted.

14 -===- E:\Скач торент\Robert Johnson - The Complete Recordings (The Centenial Collection 2CD) [2011]\Robert Johnson - Centennial Collection, Disc 1\14 - Last Fair Deal Gone Down.flac
Extracted successfully
Conclusion: this track is CDDA with probability 100%
Tempfile successfully deleted.

15 -===- E:\Скач торент\Robert Johnson - The Complete Recordings (The Centenial Collection 2CD) [2011]\Robert Johnson - Centennial Collection, Disc 1\15 - Preachin' Blues (Up Jumped the Devil).flac
Extracted successfully
Conclusion: this track is CDDA with probability 100%
Tempfile successfully deleted.

16 -===- E:\Скач торент\Robert Johnson - The Complete Recordings (The Centenial Collection 2CD) [2011]\Robert Johnson - Centennial Collection, Disc 1\16 - If I Had Possession Over Judgment Day.flac
Extracted successfully
Conclusion: this track is CDDA with probability 100%
Tempfile successfully deleted.

17 -===- E:\Скач торент\Robert Johnson - The Complete Recordings (The Centenial Collection 2CD) [2011]\Robert Johnson - Centennial Collection, Disc 1\17 - Kind Hearted Woman Blues.flac
Extracted successfully
Conclusion: this track is CDDA with probability 100%
Tempfile successfully deleted.

18 -===- E:\Скач торент\Robert Johnson - The Complete Recordings (The Centenial Collection 2CD) [2011]\Robert Johnson - Centennial Collection, Disc 1\18 - Ramblin' on My Mind.flac
Extracted successfully
Conclusion: this track is CDDA with probability 100%
Tempfile successfully deleted.

19 -===- E:\Скач торент\Robert Johnson - The Complete Recordings (The Centenial Collection 2CD) [2011]\Robert Johnson - Centennial Collection, Disc 1\19 - When You Got a Good Friend.flac
Extracted successfully
Conclusion: this track is CDDA with probability 100%
Tempfile successfully deleted.

20 -===- E:\Скач торент\Robert Johnson - The Complete Recordings (The Centenial Collection 2CD) [2011]\Robert Johnson - Centennial Collection, Disc 1\20 - Come on in My Kitchen.flac
Extracted successfully
Conclusion: this track is CDDA with probability 100%
Tempfile successfully deleted.

21 -===- E:\Скач торент\Robert Johnson - The Complete Recordings (The Centenial Collection 2CD) [2011]\Robert Johnson - Centennial Collection, Disc 1\21 - Phonograph Blues.flac
Extracted successfully
Conclusion: this track is CDDA with probability 100%
Tempfile successfully deleted.

22 -===- E:\Скач торент\Robert Johnson - The Complete Recordings (The Centenial Collection 2CD) [2011]\Robert Johnson - Centennial Collection, Disc 1\22 - Cross Road Blues.flac
Extracted successfully
Conclusion: this track is CDDA with probability 100%
Tempfile successfully deleted.

Finished at: воскресенье, 22. 05. 2011. - 18:10.28 (operation time: 0:05.31)

-----------------------------------------------------------

Started at: воскресенье, 22. 05. 2011. - 18:18.19
20 files found

01 -===- E:\Скач торент\Robert Johnson - The Complete Recordings (The Centenial Collection 2CD) [2011]\Robert Johnson - Centennial Collection, Disc 2\01 - Stones in My Passway.flac
Extracted successfully
Conclusion: this track is CDDA with probability 100%
Tempfile successfully deleted.

02 -===- E:\Скач торент\Robert Johnson - The Complete Recordings (The Centenial Collection 2CD) [2011]\Robert Johnson - Centennial Collection, Disc 2\02 - I'm a Steady Rollin' Man.flac
Extracted successfully
Conclusion: this track is CDDA with probability 100%
Tempfile successfully deleted.

03 -===- E:\Скач торент\Robert Johnson - The Complete Recordings (The Centenial Collection 2CD) [2011]\Robert Johnson - Centennial Collection, Disc 2\03 - From Four Until Late.flac
Extracted successfully
Conclusion: this track is CDDA with probability 100%
Tempfile successfully deleted.

04 -===- E:\Скач торент\Robert Johnson - The Complete Recordings (The Centenial Collection 2CD) [2011]\Robert Johnson - Centennial Collection, Disc 2\04 - Hell Hound on My Trail.flac
Extracted successfully
Conclusion: this track is CDDA with probability 100%
Tempfile successfully deleted.

05 -===- E:\Скач торент\Robert Johnson - The Complete Recordings (The Centenial Collection 2CD) [2011]\Robert Johnson - Centennial Collection, Disc 2\05 - Little Queen of Spades.flac
Extracted successfully
Conclusion: this track is CDDA with probability 100%
Tempfile successfully deleted.

06 -===- E:\Скач торент\Robert Johnson - The Complete Recordings (The Centenial Collection 2CD) [2011]\Robert Johnson - Centennial Collection, Disc 2\06 - Malted Milk.flac
Extracted successfully
Conclusion: this track is CDDA with probability 100%
Tempfile successfully deleted.

07 -===- E:\Скач торент\Robert Johnson - The Complete Recordings (The Centenial Collection 2CD) [2011]\Robert Johnson - Centennial Collection, Disc 2\07 - Drunken Hearted Man.flac
Extracted successfully
Conclusion: this track is CDDA with probability 100%
Tempfile successfully deleted.

08 -===- E:\Скач торент\Robert Johnson - The Complete Recordings (The Centenial Collection 2CD) [2011]\Robert Johnson - Centennial Collection, Disc 2\08 - Me and the Devil Blues.flac
Extracted successfully
Conclusion: this track is CDDA with probability 100%
Tempfile successfully deleted.

09 -===- E:\Скач торент\Robert Johnson - The Complete Recordings (The Centenial Collection 2CD) [2011]\Robert Johnson - Centennial Collection, Disc 2\09 - Stop Breakin' Down Blues.flac
Extracted successfully
Conclusion: this track is CDDA with probability 99%
Tempfile successfully deleted.

10 -===- E:\Скач торент\Robert Johnson - The Complete Recordings (The Centenial Collection 2CD) [2011]\Robert Johnson - Centennial Collection, Disc 2\10 - Traveling Riverside Blues.flac
Extracted successfully
Conclusion: this track is CDDA with probability 100%
Tempfile successfully deleted.

11 -===- E:\Скач торент\Robert Johnson - The Complete Recordings (The Centenial Collection 2CD) [2011]\Robert Johnson - Centennial Collection, Disc 2\11 - Honeymoon Blues.flac
Extracted successfully
Conclusion: this track is CDDA with probability 100%
Tempfile successfully deleted.

12 -===- E:\Скач торент\Robert Johnson - The Complete Recordings (The Centenial Collection 2CD) [2011]\Robert Johnson - Centennial Collection, Disc 2\12 - Love in Vain Blues.flac
Extracted successfully
Conclusion: this track is CDDA with probability 100%
Tempfile successfully deleted.

13 -===- E:\Скач торент\Robert Johnson - The Complete Recordings (The Centenial Collection 2CD) [2011]\Robert Johnson - Centennial Collection, Disc 2\13 - Milkcow's Calf Blues.flac
Extracted successfully
Conclusion: this track is CDDA with probability 100%
Tempfile successfully deleted.

14 -===- E:\Скач торент\Robert Johnson - The Complete Recordings (The Centenial Collection 2CD) [2011]\Robert Johnson - Centennial Collection, Disc 2\14 - A Little Queen of Spades.flac
Extracted successfully
Conclusion: this track is CDDA with probability 100%
Tempfile successfully deleted.

15 -===- E:\Скач торент\Robert Johnson - The Complete Recordings (The Centenial Collection 2CD) [2011]\Robert Johnson - Centennial Collection, Disc 2\15 - Drunken Hearted Man.flac
Extracted successfully
Conclusion: this track is CDDA with probability 100%
Tempfile successfully deleted.

16 -===- E:\Скач торент\Robert Johnson - The Complete Recordings (The Centenial Collection 2CD) [2011]\Robert Johnson - Centennial Collection, Disc 2\16 - Me and the Devil Blues.flac
Extracted successfully
Conclusion: this track is CDDA with probability 100%
Tempfile successfully deleted.

17 -===- E:\Скач торент\Robert Johnson - The Complete Recordings (The Centenial Collection 2CD) [2011]\Robert Johnson - Centennial Collection, Disc 2\17 - Stop Breakin' Down Blues.flac
Extracted successfully
Conclusion: this track is CDDA with probability 99%
Tempfile successfully deleted.

18 -===- E:\Скач торент\Robert Johnson - The Complete Recordings (The Centenial Collection 2CD) [2011]\Robert Johnson - Centennial Collection, Disc 2\18 - Guitar Figure [Test Groove Before Traveling Riverside Blues],Traveling.flac
Extracted successfully
Conclusion: this track is CDDA with probability 100%
Tempfile successfully deleted.

19 -===- E:\Скач торент\Robert Johnson - The Complete Recordings (The Centenial Collection 2CD) [2011]\Robert Johnson - Centennial Collection, Disc 2\19 - Johnson Speaks [Test Groove Before Love in Vain Blues],Love in Vain Blu.flac
Extracted successfully
Conclusion: this track is CDDA with probability 99%
Tempfile successfully deleted.

20 -===- E:\Скач торент\Robert Johnson - The Complete Recordings (The Centenial Collection 2CD) [2011]\Robert Johnson - Centennial Collection, Disc 2\20 - Milkcow's Calf Blues.flac
Extracted successfully
Conclusion: this track is CDDA with probability 100%
Tempfile successfully deleted.

Finished at: воскресенье, 22. 05. 2011. - 18:22.50 (operation time: 0:04.31)
May 8, 2011, marks the 100th birthday of Mississippi Delta bluesman Robert Johnson, who, according to legend, sold his soul down at the crossroads of Highway 61 and Highway 49 in a midnight bargain that has haunted the music world for three-quarters of a century. The deal brought forth Johnson s incandescent guitar technique and a run of 10-inch 78 rpm singles for the Vocalion, Oriole, Conqueror and Perfect labels recorded in San Antonio in 1936 and Dallas in 1937. Those songs have become a cornerstone of Columbia Records identity, and will be celebrated on two CENTENNIAL releases from Columbia/Legacy, a division of SONY MUSIC ENTERTAINMENT.

THE CENTENNIAL COLLECTION double-disc set shares the same genealogy as 1990 s Robert Johnson - The Complete Recordings, but that package has now been updated for a new generation. The set includes a new essay by Ted Gioia alongside a new biography of Robert Johnson written by Stephen C. LaVere (completely different from his essay in the 1990 version). Also included are new illustrations, photo images, and a family tree of music originating from Robert Johnson.


Трекер:  [ 27-Янв-2012 19:26 ]

  

Скачать .torrent

Размер .torrent файла 26 KB


Размер: 506 MB
Хэш (hash) релиза: bd32dc520893a84a66a6c49f08ec439419ed401b

Еще никто не оставлял запись к записи скачать торрент Robert Johnson - The Complete Recordings . Будь первым!

!Обратная связь