Скачать через торрент музыку Mahalia Jackson - Queen of Gospel - 1993, FLAC бесплатно без регистрации torrent

Если у вас наблюдаются проблемы со скриншотами, переходом по ссылками, скачиванием торрентов - проблемы в блокировщике рекламы AdBlock. #хорошегоДня!


Статистика раздачи
Размер:  352 MB   |    Зарегистрирован:  5 лет 8 месяцев   |    .torrent скачан:  45 раз   |   
Раздают:  1  
   
Загрузка...
 
Автор Сообщение

Umakiro

avatar Umakiro


Mahalia Jackson - Queen of Gospel

Жанр: Gospel
Страна-производитель диска: США - лицензия, EEC - принт
Год издания диска: 1993
Издатель (лейбл): Music Club (Apollo Records/ Bess Music Co.)
Номер по каталогу: MCCD 122
Страна: США
Аудиокодек: FLAC (*.flac)
Тип рипа: tracks+.cue
Битрейт аудио: lossless
Продолжительность: 68:34
Источник (релизер): диск мой, рип мой
Наличие сканов в содержимом раздачи: да
01 Get Away Jordan
02 (I'm) On My Way (To Canaan)
03 I Can Put My Trust In Jesus
04 Said He Would
05 He's My Light
06 Move On Up A Little Higher
07 Run All The Way
08 Up In Jerusalem
09 The Lord's Prayer
10 Beautiful Tomorrow
11 Walk With Me
12 In The Upper Room
13 I'm Glad Salvation Is Free
14 His Eye Is On The Sparrow
15 Jesus Is With Me
16 These Are They
17 Just As I Am
18 How I Got Over
19 I Bow On My Knees
20 Prayer Changes Things
21 Go Tell It On The Mountain
 
Exact Audio Copy V1.0 beta 3 from 29. August 2011

Отчёт EAC об извлечении, выполненном 9. января 2012, 2:42

Mahalia Jackson / Queen of Gospel

Дисковод: HL-DT-STDVDRAM GH22NS50 Adapter: 2 ID: 0

Режим чтения : ДостоверностьИспользование точного потока : ДаОтключение кэша аудио : ДаИспользование указателей C2 : Нет

Коррекция смещения при чтении : 667Способность читать области Lead-in и Lead-out : НетЗаполнение пропущенных сэмплов тишиной : ДаУдаление блоков с тишиной в начале и конце : НетПри вычислениях CRC использовались нулевые сэмплы : ДаИнтерфейс : Встроенный Win32-интерфейс для Win NT/2000Обработка зазоров : Добавлено к предыдущему треку

Выходной формат : Пользовательский кодировщикВыбранный битрейт : 896 kBit/sКачество : ВысокийДобавление ID3-тега : НетУтилита сжатия : C:\Program Files\Exact Audio Copy\Flac\flac.exeДополнительные параметры : -V -8 -T "Genre=%genre%" -T "Artist=%artist%" -T "Title=%title%" -T "Album=%albumtitle%" -T "Date=%year%" -T "Tracknumber=%tracknr%" -T "Comment=%comment%" %source%

TOC извлечённого CD

Трек | Старт | Длительность | Начальный сектор | Конечный сектор --------------------------------------------------------------------- 1 | 0:00.12 | 2:41.60 | 12 | 12146 2 | 2:41.72 | 3:43.00 | 12147 | 28871 3 | 6:24.72 | 3:18.73 | 28872 | 43794 4 | 9:43.70 | 3:23.22 | 43795 | 59041 5 | 13:07.17 | 2:58.23 | 59042 | 72414 6 | 16:05.40 | 3:00.55 | 72415 | 85969 7 | 19:06.20 | 2:42.62 | 85970 | 98181 8 | 21:49.07 | 3:09.50 | 98182 | 112406 9 | 24:58.57 | 3:08.58 | 112407 | 126564 10 | 28:07.40 | 3:08.27 | 126565 | 140691 11 | 31:15.67 | 2:45.25 | 140692 | 153091 12 | 34:01.17 | 5:58.10 | 153092 | 179951 13 | 39:59.27 | 2:49.43 | 179952 | 192669 14 | 42:48.70 | 3:44.40 | 192670 | 209509 15 | 46:33.35 | 3:05.67 | 209510 | 223451 16 | 49:39.27 | 2:53.60 | 223452 | 236486 17 | 52:33.12 | 3:12.60 | 236487 | 250946 18 | 55:45.72 | 3:14.08 | 250947 | 265504 19 | 59:00.05 | 3:17.62 | 265505 | 280341 20 | 62:17.67 | 3:10.33 | 280342 | 294624 21 | 65:28.25 | 3:06.47 | 294625 | 308621

Трек 1

Имя файла F:\mymus\9\01 Get Away Jordan.wav

Длина предзазора 0:00:02.12

Пиковый уровень 95.6 % Скорость извлечения 1.1 X Качество трека 100.0 % CRC теста 43F8B99E CRC копии 43F8B99E Точность не определена (достоверность 4) [923892A4], AccurateRip вернул [F588F3F0] (AR v2) Копирование... OK

Трек 2

Имя файла F:\mymus\9\02 (I'm) On My Way (To Canaan).wav

Длина предзазора 0:00:03.05

Пиковый уровень 60.5 % Скорость извлечения 1.2 X Качество трека 100.0 % CRC теста 5FC8AF4C CRC копии 5FC8AF4C Точность не определена (достоверность 4) [DD12280E], AccurateRip вернул [73BD0B65] (AR v2) Копирование... OK

Трек 3

Имя файла F:\mymus\9\03 I Can Put My Trust In Jesus.wav

Длина предзазора 0:00:01.62

Пиковый уровень 94.2 % Скорость извлечения 1.3 X Качество трека 100.0 % CRC теста E6EBE7E7 CRC копии E6EBE7E7 Точность не определена (достоверность 4) [2925A316], AccurateRip вернул [87A5384D] (AR v2) Копирование... OK

Трек 4

Имя файла F:\mymus\9\04 Said He Would.wav

Длина предзазора 0:00:02.30

Пиковый уровень 96.0 % Скорость извлечения 1.4 X Качество трека 100.0 % CRC теста 58664A88 CRC копии 58664A88 Точность не определена (достоверность 4) [CC225E6F], AccurateRip вернул [CED2B4B7] (AR v2) Копирование... OK

Трек 5

Имя файла F:\mymus\9\05 He's My Light.wav

Длина предзазора 0:00:01.47

Пиковый уровень 59.0 % Скорость извлечения 1.2 X Качество трека 99.9 % CRC теста 032104A8 CRC копии 032104A8 Точность не определена (достоверность 4) [1DF7E065], AccurateRip вернул [D92A2853] (AR v2) Копирование... OK

Трек 6

Имя файла F:\mymus\9\06 Move On Up A Little Higher.wav

Длина предзазора 0:00:01.20

Пиковый уровень 91.5 % Скорость извлечения 1.5 X Качество трека 100.0 % CRC теста D23ED483 CRC копии D23ED483 Точность не определена (достоверность 4) [C488B0D5], AccurateRip вернул [C1BD0568] (AR v2) Копирование... OK

Трек 7

Имя файла F:\mymus\9\07 Run All The Way.wav

Длина предзазора 0:00:01.43

Пиковый уровень 98.4 % Скорость извлечения 1.6 X Качество трека 100.0 % CRC теста 91DC3822 CRC копии 91DC3822 Точность не определена (достоверность 4) [7BDECF5F], AccurateRip вернул [F15C7F56] (AR v2) Копирование... OK

Трек 8

Имя файла F:\mymus\9\08 Up In Jerusalem.wav

Длина предзазора 0:00:01.30

Пиковый уровень 68.3 % Скорость извлечения 1.7 X Качество трека 100.0 % CRC теста EF0632B8 CRC копии EF0632B8 Точность не определена (достоверность 4) [9A561111], AccurateRip вернул [155293B6] (AR v2) Копирование... OK

Трек 9

Имя файла F:\mymus\9\09 The Lord's Prayer.wav

Длина предзазора 0:00:01.62

Пиковый уровень 63.7 % Скорость извлечения 1.7 X Качество трека 100.0 % CRC теста 950A8400 CRC копии 950A8400 Точность не определена (достоверность 4) [8F16FE73], AccurateRip вернул [1C2FAD2D] (AR v2) Копирование... OK

Трек 10

Имя файла F:\mymus\9\10 Beautiful Tomorrow.wav

Длина предзазора 0:00:01.15

Пиковый уровень 55.9 % Скорость извлечения 1.8 X Качество трека 100.0 % CRC теста B59FE6BE CRC копии B59FE6BE Точность не определена (достоверность 4) [EB5E90B8], AccurateRip вернул [4C09D079] (AR v2) Копирование... OK

Трек 11

Имя файла F:\mymus\9\11 Walk With Me.wav

Длина предзазора 0:00:00.70

Пиковый уровень 99.4 % Скорость извлечения 1.5 X Качество трека 99.9 % CRC теста 9B0F1E2B CRC копии 9B0F1E2B Точность не определена (достоверность 4) [80FA5440], AccurateRip вернул [8A8D9CE6] (AR v2) Копирование... OK

Трек 12

Имя файла F:\mymus\9\12 In The Upper Room.wav

Длина предзазора 0:00:02.40

Пиковый уровень 82.8 % Скорость извлечения 2.1 X Качество трека 100.0 % CRC теста 5EEE306E CRC копии 5EEE306E Точность не определена (достоверность 4) [9A86FF84], AccurateRip вернул [86E37509] (AR v2) Копирование... OK

Трек 13

Имя файла F:\mymus\9\13 I'm Glad Salvation Is Free.wav

Длина предзазора 0:00:00.67

Пиковый уровень 100.0 % Скорость извлечения 2.0 X Качество трека 100.0 % CRC теста CD6ED59D CRC копии CD6ED59D Точность не определена (достоверность 4) [1E172395], AccurateRip вернул [B6DE01EE] (AR v2) Копирование... OK

Трек 14

Имя файла F:\mymus\9\14 His Eye Is On The Sparrow.wav

Длина предзазора 0:00:00.60

Пиковый уровень 93.4 % Скорость извлечения 2.2 X Качество трека 100.0 % CRC теста B103C9A6 CRC копии B103C9A6 Точность не определена (достоверность 4) [1454EF66], AccurateRip вернул [E1AEB06A] (AR v2) Копирование... OK

Трек 15

Имя файла F:\mymus\9\15 Jesus Is With Me.wav

Длина предзазора 0:00:01.28

Пиковый уровень 75.8 % Скорость извлечения 1.8 X Качество трека 99.9 % CRC теста 3464224C CRC копии 3464224C Точность не определена (достоверность 4) [4C0D47BD], AccurateRip вернул [E722E5E1] (AR v2) Копирование... OK

Трек 16

Имя файла F:\mymus\9\16 These Are They.wav

Длина предзазора 0:00:01.37

Пиковый уровень 40.3 % Скорость извлечения 2.1 X Качество трека 100.0 % CRC теста 32EE1BCC CRC копии 32EE1BCC Точность не определена (достоверность 4) [A4B1B89B], AccurateRip вернул [ACADC071] (AR v2) Копирование... OK

Трек 17

Имя файла F:\mymus\9\17 Just As I Am.wav

Длина предзазора 0:00:00.37

Пиковый уровень 41.5 % Скорость извлечения 2.2 X Качество трека 100.0 % CRC теста 8165C464 CRC копии 8165C464 Точность не определена (достоверность 4) [4429E8CD], AccurateRip вернул [61A18BCB] (AR v2) Копирование... OK

Трек 18

Имя файла F:\mymus\9\18 How I Got Over.wav

Длина предзазора 0:00:00.60

Пиковый уровень 100.0 % Скорость извлечения 2.3 X Качество трека 100.0 % CRC теста D8386978 CRC копии D8386978 Точность не определена (достоверность 4) [FAE8156C], AccurateRip вернул [D32BC98C] (AR v2) Копирование... OK

Трек 19

Имя файла F:\mymus\9\19 I Bow On My Knees.wav

Длина предзазора 0:00:02.23

Пиковый уровень 86.7 % Скорость извлечения 2.3 X Качество трека 100.0 % CRC теста 5DACBD00 CRC копии 5DACBD00 Точность не определена (достоверность 4) [C33F10D4], AccurateRip вернул [6CD24295] (AR v2) Копирование... OK

Трек 20

Имя файла F:\mymus\9\20 Prayer Changes Things.wav

Длина предзазора 0:00:01.05

Пиковый уровень 78.4 % Скорость извлечения 2.4 X Качество трека 100.0 % CRC теста ACC5EC26 CRC копии ACC5EC26 Точность не определена (достоверность 4) [2DA93451], AccurateRip вернул [9830628C] (AR v2) Копирование... OK

Трек 21

Имя файла F:\mymus\9\21 Go Tell It On The Mountain.wav

Длина предзазора 0:00:01.60

Пиковый уровень 48.4 % Скорость извлечения 2.5 X Качество трека 100.0 % CRC теста 4118FA4B CRC копии 4118FA4B Точность не определена (достоверность 4) [17FE12DD], AccurateRip вернул [79C441FE] (AR v2) Копирование... OK

Ни один трек не прошёл проверки на точностьВ вашей базе может быть иной вариант штамповки диска

Ошибок не произошло

Конец отчёта

==== Контрольная сумма отчёта C16A8722E1CA869A9511F31904F81041167A5F435409190776962847CDE73FBB ====
 
REM GENRE GospelREM DATE 1993REM DISCID 42101215REM COMMENT "ExactAudioCopy v1.0b3"PERFORMER "Mahalia Jackson"TITLE "Queen of Gospel"FILE "01 Get Away Jordan.wav" WAVE TRACK 01 AUDIO TITLE "Get Away Jordan" PERFORMER "Mahalia Jackson" PREGAP 00:00:12 INDEX 01 00:00:00 TRACK 02 AUDIO TITLE "(I'm) On My Way (To Canaan)" PERFORMER "Mahalia Jackson" INDEX 00 02:38:55FILE "02 (I'm) On My Way (To Canaan).wav" WAVE INDEX 01 00:00:00 TRACK 03 AUDIO TITLE "I Can Put My Trust In Jesus" PERFORMER "Mahalia Jackson" INDEX 00 03:41:13FILE "03 I Can Put My Trust In Jesus.wav" WAVE INDEX 01 00:00:00 TRACK 04 AUDIO TITLE "Said He Would" PERFORMER "Mahalia Jackson" INDEX 00 03:16:43FILE "04 Said He Would.wav" WAVE INDEX 01 00:00:00 TRACK 05 AUDIO TITLE "He's My Light" PERFORMER "Mahalia Jackson" INDEX 00 03:21:50FILE "05 He's My Light.wav" WAVE INDEX 01 00:00:00 TRACK 06 AUDIO TITLE "Move On Up A Little Higher" PERFORMER "Mahalia Jackson" INDEX 00 02:57:03FILE "06 Move On Up A Little Higher.wav" WAVE INDEX 01 00:00:00 TRACK 07 AUDIO TITLE "Run All The Way" PERFORMER "Mahalia Jackson" INDEX 00 02:59:12FILE "07 Run All The Way.wav" WAVE INDEX 01 00:00:00 TRACK 08 AUDIO TITLE "Up In Jerusalem" PERFORMER "Mahalia Jackson" INDEX 00 02:41:32FILE "08 Up In Jerusalem.wav" WAVE INDEX 01 00:00:00 TRACK 09 AUDIO TITLE "The Lord's Prayer" PERFORMER "Mahalia Jackson" INDEX 00 03:07:63FILE "09 The Lord's Prayer.wav" WAVE INDEX 01 00:00:00 TRACK 10 AUDIO TITLE "Beautiful Tomorrow" PERFORMER "Mahalia Jackson" INDEX 00 03:07:43FILE "10 Beautiful Tomorrow.wav" WAVE INDEX 01 00:00:00 TRACK 11 AUDIO TITLE "Walk With Me" PERFORMER "Mahalia Jackson" INDEX 00 03:07:32FILE "11 Walk With Me.wav" WAVE INDEX 01 00:00:00 TRACK 12 AUDIO TITLE "In The Upper Room" PERFORMER "Mahalia Jackson" INDEX 00 02:42:60FILE "12 In The Upper Room.wav" WAVE INDEX 01 00:00:00 TRACK 13 AUDIO TITLE "I'm Glad Salvation Is Free" PERFORMER "Mahalia Jackson" INDEX 00 05:57:18FILE "13 I'm Glad Salvation Is Free.wav" WAVE INDEX 01 00:00:00 TRACK 14 AUDIO TITLE "His Eye Is On The Sparrow" PERFORMER "Mahalia Jackson" INDEX 00 02:48:58FILE "14 His Eye Is On The Sparrow.wav" WAVE INDEX 01 00:00:00 TRACK 15 AUDIO TITLE "Jesus Is With Me" PERFORMER "Mahalia Jackson" INDEX 00 03:43:12FILE "15 Jesus Is With Me.wav" WAVE INDEX 01 00:00:00 TRACK 16 AUDIO TITLE "These Are They" PERFORMER "Mahalia Jackson" INDEX 00 03:04:30FILE "16 These Are They.wav" WAVE INDEX 01 00:00:00 TRACK 17 AUDIO TITLE "Just As I Am" PERFORMER "Mahalia Jackson" INDEX 00 02:53:23FILE "17 Just As I Am.wav" WAVE INDEX 01 00:00:00 TRACK 18 AUDIO TITLE "How I Got Over" PERFORMER "Mahalia Jackson" INDEX 00 03:12:00FILE "18 How I Got Over.wav" WAVE INDEX 01 00:00:00 TRACK 19 AUDIO TITLE "I Bow On My Knees" PERFORMER "Mahalia Jackson" INDEX 00 03:11:60FILE "19 I Bow On My Knees.wav" WAVE INDEX 01 00:00:00 TRACK 20 AUDIO TITLE "Prayer Changes Things" PERFORMER "Mahalia Jackson" INDEX 00 03:16:57FILE "20 Prayer Changes Things.wav" WAVE INDEX 01 00:00:00 TRACK 21 AUDIO TITLE "Go Tell It On The Mountain" PERFORMER "Mahalia Jackson" INDEX 00 03:08:48FILE "21 Go Tell It On The Mountain.wav" WAVE INDEX 01 00:00:00
 
AUDIOCHECKER v2.0 beta (build 457) - by Dester - opdester@freemail.hu~~~~~~~~~~~~~~~~~~~~~~~~~~~~~~~~~~

Started at: понедельник, 09. 01. 2012. - 2:52.3821 files found

01 -===- F:\mymus\9\01 Get Away Jordan.flac Extracted successfully Conclusion: this track is MPEG with probability 93% Tempfile successfully deleted.

02 -===- F:\mymus\9\02 (I'm) On My Way (To Canaan).flac Extracted successfully Conclusion: this track is CDDA with probability 100% Tempfile successfully deleted.

03 -===- F:\mymus\9\03 I Can Put My Trust In Jesus.flac Extracted successfully Conclusion: this track is CDDA with probability 100% Tempfile successfully deleted.

04 -===- F:\mymus\9\04 Said He Would.flac Extracted successfully Conclusion: this track is CDDA with probability 100% Tempfile successfully deleted.

05 -===- F:\mymus\9\05 He's My Light.flac Extracted successfully Conclusion: this track is CDDA with probability 100% Tempfile successfully deleted.

06 -===- F:\mymus\9\06 Move On Up A Little Higher.flac Extracted successfully Conclusion: this track is CDDA with probability 100% Tempfile successfully deleted.

07 -===- F:\mymus\9\07 Run All The Way.flac Extracted successfully Conclusion: this track is CDDA with probability 100% Tempfile successfully deleted.

08 -===- F:\mymus\9\08 Up In Jerusalem.flac Extracted successfully Conclusion: this track is CDDA with probability 100% Tempfile successfully deleted.

09 -===- F:\mymus\9\09 The Lord's Prayer.flac Extracted successfully Conclusion: this track is CDDA with probability 100% Tempfile successfully deleted.

10 -===- F:\mymus\9\10 Beautiful Tomorrow.flac Extracted successfully Conclusion: this track is CDDA with probability 100% Tempfile successfully deleted.

11 -===- F:\mymus\9\11 Walk With Me.flac Extracted successfully Conclusion: this track is CDDA with probability 86% Tempfile successfully deleted.

12 -===- F:\mymus\9\12 In The Upper Room.flac Extracted successfully Conclusion: this track is CDDA with probability 99% Tempfile successfully deleted.

13 -===- F:\mymus\9\13 I'm Glad Salvation Is Free.flac Extracted successfully Conclusion: this track is CDDA with probability 43% Tempfile successfully deleted.

14 -===- F:\mymus\9\14 His Eye Is On The Sparrow.flac Extracted successfully Conclusion: this track is CDDA with probability 100% Tempfile successfully deleted.

15 -===- F:\mymus\9\15 Jesus Is With Me.flac Extracted successfully Conclusion: this track is CDDA with probability 100% Tempfile successfully deleted.

16 -===- F:\mymus\9\16 These Are They.flac Extracted successfully Conclusion: this track is CDDA with probability 100% Tempfile successfully deleted.

17 -===- F:\mymus\9\17 Just As I Am.flac Extracted successfully Conclusion: this track is CDDA with probability 100% Tempfile successfully deleted.

18 -===- F:\mymus\9\18 How I Got Over.flac Extracted successfully Conclusion: this track is CDDA with probability 100% Tempfile successfully deleted.

19 -===- F:\mymus\9\19 I Bow On My Knees.flac Extracted successfully Conclusion: this track is CDDA with probability 100% Tempfile successfully deleted.

20 -===- F:\mymus\9\20 Prayer Changes Things.flac Extracted successfully Conclusion: this track is CDDA with probability 100% Tempfile successfully deleted.

21 -===- F:\mymus\9\21 Go Tell It On The Mountain.flac Extracted successfully Conclusion: this track is CDDA with probability 100% Tempfile successfully deleted.

Finished at: понедельник, 09. 01. 2012. - 2:58.10 (operation time: 0:05.31)


Трекер:  [ 27-Янв-2012 19:25 ]

  

Скачать .torrent

Размер .torrent файла 16 KB


Размер: 352 MB
Хэш (hash) релиза: 0a9fd5258b8207a77ffcdbe73be0063daed55575

Еще никто не оставлял запись к записи скачать торрент Mahalia Jackson - Queen of Gospel - 1993, FLAC . Будь первым!

!Обратная связь