Скачать через торрент музыку Sister Rosetta Tharpe - Gospel Feeling бесплатно без регистрации torrent

Если у вас наблюдаются проблемы со скриншотами, переходом по ссылками, скачиванием торрентов - проблемы в блокировщике рекламы AdBlock. #хорошегоДня!


Статистика раздачи
Размер:  210 MB   |    Зарегистрирован:  5 лет 8 месяцев   |    .torrent скачан:  26 раз   |   
Раздают:  1  
   
Загрузка...
 
Автор Сообщение

Umakiro

avatar Umakiro


Sister Rosetta Tharpe
Gospel Feeling
(Live at the Hot Club de France-1966)

Жанр: Blues / Gospel / Black Gospel
Год выпуска диска: 2007
Производитель диска: EU / JADE
Аудио кодек: FLAC
Тип рипа: image+.cue
Битрейт аудио: lossless
Продолжительность: 43:09

Трэклист:

01. This Train 5:30
02. I'm Gonna Wait Until My Change Come 3:51
03. Jesus Met the Woman at the Well 6:50
04. He's Got the Whole World in His Hands 2:52
05. Nobody Knows the Trouble I've Seen 4:37
06. That's All 3:12
07. Walk All over God's Heaven 2:23
08. Go Ahead 2:37
09. Joshua Fit the Battle of Jericho 2:32
10. Travellin' Shoes 1:43
11. Go Tell It on the Mountain 1:35
12. Take My Hand, Precious Lord 5:29

Доп. информация:

Excerpts from the Hot Club de France 1966 concert

Rosetta Tharpe - vocals & guitar

Рип с родного диска, сканы помещены в раздачу* * *
Exact Audio Copy V0.99 prebeta 5 from 4. May 2009

Отчёт EAC об извлечении, выполненном 10. октября 2009, 15:28

Sister Rosetta Tharpe / Live at the Hot Club de France

Дисковод: PIONEER DVD-RW DVR-217F Adapter: 0 ID: 1

Режим чтения : Достоверность
Использование точного потока : Да
Отключение кэша аудио : Да
Использование указателей C2 : Нет

Коррекция смещения при чтении : 96
Способность читать области Lead-in и Lead-out : Нет
Заполнение пропущенных сэмплов тишиной : Да
Удаление блоков с тишиной в начале и конце : Нет
При вычислениях CRC использовались нулевые сэмплы : Да
Интерфейс : Установленный внешний ASPI-интерфейс

Выходной формат : Пользовательский кодировщик
Выбранный битрейт : 128 kBit/s
Качество : Высокий
Добавление ID3-тэга : Нет
Утилита сжатия : C:\Program Files\FLAC\FLAC frontend.exe
Дополнительные параметры : -8 -V %s

TOC извлечённого CD

Трек | Старт | Длительность | Начальный сектор | Конечный сектор
---------------------------------------------------------------------
1 | 0:00.33 | 5:30.30 | 33 | 24812
2 | 5:30.63 | 3:51.00 | 24813 | 42137
3 | 9:21.63 | 6:50.37 | 42138 | 72924
4 | 16:12.25 | 2:52.10 | 72925 | 85834
5 | 19:04.35 | 4:37.48 | 85835 | 106657
6 | 23:42.08 | 3:12.05 | 106658 | 121062
7 | 26:54.13 | 2:23.15 | 121063 | 131802
8 | 29:17.28 | 2:37.22 | 131803 | 143599
9 | 31:54.50 | 2:32.05 | 143600 | 155004
10 | 34:26.55 | 1:43.28 | 155005 | 162757
11 | 36:10.08 | 1:35.72 | 162758 | 169954
12 | 37:46.05 | 5:29.00 | 169955 | 194629

Характеристики диапазона извлечения и сообщения об ошибках

Выбранный диапазон

Имя файла C:\Torrent\Sister Rosetta Tharpe - Gospel Feeling\Sister Rosetta Tharpe - Live at the Hot Club de France.wav

Пиковый уровень 100.0 %
Качество диапазона 99.9 %
CRC теста 9723A714
CRC копии 9723A714
Копирование... OK

Ошибок не произошло

AccurateRip: сводка

Трек 1 нет в базе данных
Трек 2 нет в базе данных
Трек 3 нет в базе данных
Трек 4 нет в базе данных
Трек 5 нет в базе данных
Трек 6 нет в базе данных
Трек 7 нет в базе данных
Трек 8 нет в базе данных
Трек 9 нет в базе данных
Трек 10 нет в базе данных
Трек 11 нет в базе данных
Трек 12 нет в базе данных

Ни одного трека нет в базе AccurateRip

Конец отчёта


Трекер:  [ 27-Янв-2012 19:23 ]

  

Скачать .torrent

Размер .torrent файла 17 KB


Размер: 210 MB
Хэш (hash) релиза: 3b8e82d1a4323d447967c2e9729f487166230b8b

Еще никто не оставлял запись к записи скачать торрент Sister Rosetta Tharpe - Gospel Feeling . Будь первым!

!Обратная связь