Скачать через торрент музыку Sister Rosetta Tharpe - Gospel Train - 2005 бесплатно без регистрации torrent

Если у вас наблюдаются проблемы со скриншотами, переходом по ссылками, скачиванием торрентов - проблемы в блокировщике рекламы AdBlock. #хорошегоДня!


Статистика раздачи
Размер:  111 MB   |    Зарегистрирован:  5 лет 8 месяцев   |    .torrent скачан:  30 раз   |   
Раздают:  1  
   
Загрузка...
 
Автор Сообщение

Umakiro

avatar Umakiro


Sister Rosetta Tharpe
Gospel Train (mini-LP)

Жанр: Blues / Gospel / Black Gospel
Год выпуска диска: 2005
Производитель диска: USA / Mercury
Аудио кодек: FLAC
Тип рипа: image+.cue
Битрейт аудио: lossless
Продолжительность: 32:01

Трэклист:

01. Jericho 2:00
02. When They Ring The Golden Bell 2:27
03. Two Little Fishes, Five Loaves Of Bread 2:31
04. Beams Of Heaven 3:20
05. Can't No Grave Hold My Body Down 2:40
06. All Alone 2:35
07. Up Above My Head There's Music In The Air 2:21
08. I Shall Know Him 2:22
09. Fly Away 2:25
10. How About You 3:25
11. Precious Memories 2:36
12. 991/2 Won't Do 2:02

Рип с родного диска, сканы помещены в раздачу* * *
Tracks 1,2 and 7-9:

Sister Rosetta Tharpe (vocal, guitar)
Ernie Hayes (piano)
Harry "Doc" Bagby (organ)
Ernest Richardson (guitar)
George Diviver (bass)
Panama Francis (drums)
on tracks 2 and 7-9:
add The Harmonizing Four (vocal)

Recorded July 5, 1956 at Mercury Sound Studio, New York City

Tracks 3-6 and 10-12:

Sister Rosetta Tharpe (vocal, guitar)
Ernie Hayes (piano)
Harry "Doc" Bagby (organ)
Ernest Richardson (guitar)
Lloyd Trotman (bass)
Panama Francis (drums)

Recorded July 2, 1956 at Mercury Sound Studio, New York City
Exact Audio Copy V0.99 prebeta 5 from 4. May 2009

Отчёт EAC об извлечении, выполненном 8. сентября 2009, 17:12

Tharpe, Rosetta / Gospel Train

Дисковод: PIONEER DVD-RW DVR-217F Adapter: 0 ID: 1

Режим чтения : Достоверность
Использование точного потока : Да
Отключение кэша аудио : Да
Использование указателей C2 : Нет

Коррекция смещения при чтении : 96
Способность читать области Lead-in и Lead-out : Нет
Заполнение пропущенных сэмплов тишиной : Да
Удаление блоков с тишиной в начале и конце : Нет
При вычислениях CRC использовались нулевые сэмплы : Да
Интерфейс : Установленный внешний ASPI-интерфейс

Выходной формат : Пользовательский кодировщик
Выбранный битрейт : 128 kBit/s
Качество : Высокий
Добавление ID3-тэга : Нет
Утилита сжатия : C:\Program Files\FLAC\FLAC frontend.exe
Дополнительные параметры : -8 -V %s

TOC извлечённого CD

Трек | Старт | Длительность | Начальный сектор | Конечный сектор
---------------------------------------------------------------------
1 | 0:00.00 | 2:06.15 | 0 | 9464
2 | 2:06.15 | 2:32.42 | 9465 | 20906
3 | 4:38.57 | 2:36.71 | 20907 | 32677
4 | 7:15.53 | 3:29.24 | 32678 | 48376
5 | 10:45.02 | 2:44.41 | 48377 | 60717
6 | 13:29.43 | 2:40.52 | 60718 | 72769
7 | 16:10.20 | 2:32.25 | 72770 | 84194
8 | 18:42.45 | 2:31.12 | 84195 | 95531
9 | 21:13.57 | 2:28.19 | 95532 | 106650
10 | 23:42.01 | 3:39.09 | 106651 | 123084
11 | 27:21.10 | 2:42.67 | 123085 | 135301
12 | 30:04.02 | 1:57.45 | 135302 | 144121

Характеристики диапазона извлечения и сообщения об ошибках

Выбранный диапазон

Имя файла C:\Torrent\Sister Rosetta Tharpe - Gospel Train\Tharpe, Rosetta - Gospel Train.wav

Пиковый уровень 70.7 %
Качество диапазона 100.0 %
CRC теста DA6AF6E9
CRC копии DA6AF6E9
Копирование... OK

Ошибок не произошло

AccurateRip: сводка

Трек 1 точное извлечение (доверие 1) [83471925]
Трек 2 точное извлечение (доверие 1) [286FEE39]
Трек 3 точное извлечение (доверие 1) [C76BB4A0]
Трек 4 точное извлечение (доверие 1) [34D30ACF]
Трек 5 точное извлечение (доверие 1) [81CA35E3]
Трек 6 точное извлечение (доверие 1) [23A3C1FE]
Трек 7 точное извлечение (доверие 1) [B613D52A]
Трек 8 точное извлечение (доверие 1) [94761C1D]
Трек 9 точное извлечение (доверие 1) [1B91DF68]
Трек 10 точное извлечение (доверие 1) [762C94D6]
Трек 11 точное извлечение (доверие 1) [DA884DD1]
Трек 12 точное извлечение (доверие 1) [614EB723]

Все треки извлечены точно

Конец отчёта


Трекер:  [ 27-Янв-2012 19:23 ]

  

Скачать .torrent

Размер .torrent файла 18 KB


Размер: 111 MB
Хэш (hash) релиза: 56a554a57cd92fbee82edef730356c02e881ba52

Еще никто не оставлял запись к записи скачать торрент Sister Rosetta Tharpe - Gospel Train - 2005 . Будь первым!

!Обратная связь