Скачать через торрент музыку Sister Rosetta Tharpe - From Blues To Gospel - 2005 бесплатно без регистрации torrent

Если у вас наблюдаются проблемы со скриншотами, переходом по ссылками, скачиванием торрентов - проблемы в блокировщике рекламы AdBlock. #хорошегоДня!


Статистика раздачи
Размер:  571 MB   |    Зарегистрирован:  5 лет 8 месяцев   |    .torrent скачан:  29 раз   |   
Раздают:  1  
   
Загрузка...
 
Автор Сообщение

Umakiro

avatar Umakiro


Sister Rosetta Tharpe
From Blues To Gospel (Compilation, 2 CD)

Жанр: Blues / Gospel / Soul-Blues
Год выпуска диска: 2005
Производитель диска: Italy / Comet Records
Аудио кодек: FLAC
Тип рипа: image+.cue
Битрейт аудио: lossless
Продолжительность: 1:15:22 / 1:13:00

Доп. информация:

Sister Rosetta Tharpe, vocal, guitar
with
Lucky Millinder & His Orchestra
The Sammy Price Trio
The James Roots Quartet
The Rosetta Gospel Singers

Поименный список исполнителей - в буклете

Компиляция
Составлена из записей легендарной
гитаристки и певицы Сестры Розетты Тарп,
сделанных в 1938-1949 г.г.

Рипы с родных дисков, сканы помещены в раздачу* * *
CD 1

01. My Man and I 2:57
02. This Train 2:40
03. Sit Down 2:14
04. Trouble in Mind 2:28
05. Shout, Sister, Shout! 2:41
06. Rock Me 2:41
07. Nobody's Fault But Mine 3:00
08. I Want a Tall Skinny Papa 2:52
09. God Don't Like It 2:25
10. What Is the Soul of Man? 2:30
11. Singing in My Soul 2:55
12. Strange Things Happening Everyday 2:46
13. Two Little Fishes and Five Loaves of Bread 2:56
14. Jonah 3:02
15. Didn't It Rain 2:34
16. The Natural Facts 3:12
17. Down by the Riverside 2:30
18. Up Above My Head I Hear Music in the Air 2:27
19. Precious Memories 5:11
20. Come by Here 3:42
21. Ain't No Room in the Church for Liars 4:26
22. Last Mile of the Way 3:39
23. Peace in the Valley 4:21
24. Precious Lord 5:04
Exact Audio Copy V0.99 prebeta 5 from 4. May 2009

Отчёт EAC об извлечении, выполненном 3. сентября 2009, 13:18

Sister Rosetta Tharpe / From Blues To Gospel CD1

Дисковод: PIONEER DVD-RW DVR-217F Adapter: 0 ID: 1

Режим чтения : Достоверность
Использование точного потока : Да
Отключение кэша аудио : Да
Использование указателей C2 : Нет

Коррекция смещения при чтении : 96
Способность читать области Lead-in и Lead-out : Нет
Заполнение пропущенных сэмплов тишиной : Да
Удаление блоков с тишиной в начале и конце : Нет
При вычислениях CRC использовались нулевые сэмплы : Да
Интерфейс : Установленный внешний ASPI-интерфейс

Выходной формат : Пользовательский кодировщик
Выбранный битрейт : 128 kBit/s
Качество : Высокий
Добавление ID3-тэга : Нет
Утилита сжатия : C:\Program Files\FLAC\FLAC frontend.exe
Дополнительные параметры : -8 -V %s

TOC извлечённого CD

Трек | Старт | Длительность | Начальный сектор | Конечный сектор
---------------------------------------------------------------------
1 | 0:00.00 | 2:58.70 | 0 | 13419
2 | 2:58.70 | 2:40.62 | 13420 | 25481
3 | 5:39.57 | 2:14.48 | 25482 | 35579
4 | 7:54.30 | 2:28.57 | 35580 | 46736
5 | 10:23.12 | 2:41.52 | 46737 | 58863
6 | 13:04.64 | 2:41.18 | 58864 | 70956
7 | 15:46.07 | 3:00.65 | 70957 | 84521
8 | 18:46.72 | 2:52.40 | 84522 | 97461
9 | 21:39.37 | 2:25.45 | 97462 | 108381
10 | 24:05.07 | 2:30.55 | 108382 | 119686
11 | 26:35.62 | 2:55.48 | 119687 | 132859
12 | 29:31.35 | 2:46.70 | 132860 | 145379
13 | 32:18.30 | 2:56.60 | 145380 | 158639
14 | 35:15.15 | 3:02.12 | 158640 | 172301
15 | 38:17.27 | 2:35.05 | 172302 | 183931
16 | 40:52.32 | 3:13.23 | 183932 | 198429
17 | 44:05.55 | 2:30.65 | 198430 | 209744
18 | 46:36.45 | 2:29.05 | 209745 | 220924
19 | 49:05.50 | 5:10.25 | 220925 | 244199
20 | 54:16.00 | 3:41.17 | 244200 | 260791
21 | 57:57.17 | 4:25.10 | 260792 | 280676
22 | 62:22.27 | 3:38.15 | 280677 | 297041
23 | 66:00.42 | 4:19.20 | 297042 | 316486
24 | 70:19.62 | 5:02.03 | 316487 | 339139

Характеристики диапазона извлечения и сообщения об ошибках

Выбранный диапазон

Имя файла C:\Torrent\Sister Rosetta Tharpe - From Blues To Gospel\CD 1\Sister Rosetta Tharpe - From Blues To Gospel CD1.wav

Пиковый уровень 100.0 %
Качество диапазона 99.9 %
CRC теста B6CB4871
CRC копии B6CB4871
Копирование... OK

Ошибок не произошло

AccurateRip: сводка

Трек 1 нет в базе данных
Трек 2 нет в базе данных
Трек 3 нет в базе данных
Трек 4 нет в базе данных
Трек 5 нет в базе данных
Трек 6 нет в базе данных
Трек 7 нет в базе данных
Трек 8 нет в базе данных
Трек 9 нет в базе данных
Трек 10 нет в базе данных
Трек 11 нет в базе данных
Трек 12 нет в базе данных
Трек 13 нет в базе данных
Трек 14 нет в базе данных
Трек 15 нет в базе данных
Трек 16 нет в базе данных
Трек 17 нет в базе данных
Трек 18 нет в базе данных
Трек 19 нет в базе данных
Трек 20 нет в базе данных
Трек 21 нет в базе данных
Трек 22 нет в базе данных
Трек 23 нет в базе данных
Трек 24 нет в базе данных

Ни одного трека нет в базе AccurateRip

Конец отчёта
CD 2

01. Walking Up the King's Highway 3:52
02. What Are They Doing in Heaven? 4:05
03. Savior Don't Pass Me By 4:08
04. I Saw the Light 1:52
05. Nothing Between 2:31
06. Shine for Jesus 1:54
07. Never Alone 2:19
08. The Family Prayer 1:53
09. Blow Ye the Trumpet 2:13
10. God Leads Us Along 4:22
11. Oh, The Joy Came to Me 1:24
12. Seeking for You 1:56
13. I Do, Don't You? 4:11
14. He's the Lily of the Valley 1:36
15. God's Mighty Hand 2:57
16. The Lord Followed Me 3:12
17. Oh, When I Come to the End of My Journey 2:58
18. Stretch Out 2:45
19. Beams of Heaven 2:42
20. My Journey to the Sky 3:13
21. Teach Me to Be Right Price 2:48
22. I Heard My Mother Call My Name 2:47
23. Heaven Is Not My Home 2:43
24. Ain't No Grave Hold My Body Down 2:55
25. Lay Down Your Soul 2:27
26. Were You There When They Crucified My Lord? 3:16
Exact Audio Copy V0.99 prebeta 5 from 4. May 2009

Отчёт EAC об извлечении, выполненном 3. сентября 2009, 13:53

Sister Rosetta Tharpe / From Blues To Gospel CD2

Дисковод: PIONEER DVD-RW DVR-217F Adapter: 0 ID: 1

Режим чтения : Достоверность
Использование точного потока : Да
Отключение кэша аудио : Да
Использование указателей C2 : Нет

Коррекция смещения при чтении : 96
Способность читать области Lead-in и Lead-out : Нет
Заполнение пропущенных сэмплов тишиной : Да
Удаление блоков с тишиной в начале и конце : Нет
При вычислениях CRC использовались нулевые сэмплы : Да
Интерфейс : Установленный внешний ASPI-интерфейс

Выходной формат : Пользовательский кодировщик
Выбранный битрейт : 128 kBit/s
Качество : Высокий
Добавление ID3-тэга : Нет
Утилита сжатия : C:\Program Files\FLAC\FLAC frontend.exe
Дополнительные параметры : -8 -V %s

TOC извлечённого CD

Трек | Старт | Длительность | Начальный сектор | Конечный сектор
---------------------------------------------------------------------
1 | 0:00.00 | 3:52.07 | 0 | 17406
2 | 3:52.07 | 4:04.30 | 17407 | 35736
3 | 7:56.37 | 4:07.10 | 35737 | 54271
4 | 12:03.47 | 1:50.33 | 54272 | 62554
5 | 13:54.05 | 2:32.65 | 62555 | 74019
6 | 16:26.70 | 1:55.57 | 74020 | 82701
7 | 18:22.52 | 2:20.30 | 82702 | 93231
8 | 20:43.07 | 1:54.33 | 93232 | 101814
9 | 22:37.40 | 2:13.72 | 101815 | 111861
10 | 24:51.37 | 4:23.30 | 111862 | 131616
11 | 29:14.67 | 1:26.08 | 131617 | 138074
12 | 30:41.00 | 1:58.22 | 138075 | 146946
13 | 32:39.22 | 4:12.58 | 146947 | 165904
14 | 36:52.05 | 1:33.47 | 165905 | 172926
15 | 38:25.52 | 2:54.53 | 172927 | 186029
16 | 41:20.30 | 3:11.55 | 186030 | 200409
17 | 44:32.10 | 2:57.42 | 200410 | 213726
18 | 47:29.52 | 2:43.73 | 213727 | 226024
19 | 50:13.50 | 2:41.72 | 226025 | 238171
20 | 52:55.47 | 3:12.53 | 238172 | 252624
21 | 56:08.25 | 2:47.25 | 252625 | 265174
22 | 58:55.50 | 2:46.12 | 265175 | 277636
23 | 61:41.62 | 2:41.70 | 277637 | 289781
24 | 64:23.57 | 2:54.45 | 289782 | 302876
25 | 67:18.27 | 2:26.28 | 302877 | 313854
26 | 69:44.55 | 3:15.07 | 313855 | 328486

Характеристики диапазона извлечения и сообщения об ошибках

Выбранный диапазон

Имя файла C:\Torrent\Sister Rosetta Tharpe - From Blues To Gospel\CD 2\Sister Rosetta Tharpe - From Blues To Gospel CD2.wav

Пиковый уровень 100.0 %
Качество диапазона 100.0 %
CRC теста 8197F03C
CRC копии 8197F03C
Копирование... OK

Ошибок не произошло

AccurateRip: сводка

Трек 1 нет в базе данных
Трек 2 нет в базе данных
Трек 3 нет в базе данных
Трек 4 нет в базе данных
Трек 5 нет в базе данных
Трек 6 нет в базе данных
Трек 7 нет в базе данных
Трек 8 нет в базе данных
Трек 9 нет в базе данных
Трек 10 нет в базе данных
Трек 11 нет в базе данных
Трек 12 нет в базе данных
Трек 13 нет в базе данных
Трек 14 нет в базе данных
Трек 15 нет в базе данных
Трек 16 нет в базе данных
Трек 17 нет в базе данных
Трек 18 нет в базе данных
Трек 19 нет в базе данных
Трек 20 нет в базе данных
Трек 21 нет в базе данных
Трек 22 нет в базе данных
Трек 23 нет в базе данных
Трек 24 нет в базе данных
Трек 25 нет в базе данных
Трек 26 нет в базе данных

Ни одного трека нет в базе AccurateRip

Конец отчёта


Статья о певице (Гитаристка.ру)

Трекер:  [ 27-Янв-2012 19:22 ]

  

Скачать .torrent

Размер .torrent файла 12 KB


Размер: 571 MB
Хэш (hash) релиза: 44a57674e067c93a6c58007b0ae206f4336dcdf8

Еще никто не оставлял запись к записи скачать торрент Sister Rosetta Tharpe - From Blues To Gospel - 2005 . Будь первым!

!Обратная связь