Скачать через торрент музыку Billy Thompson - A Better Man - 2010, APE бесплатно без регистрации torrent

Если у вас наблюдаются проблемы со скриншотами, переходом по ссылками, скачиванием торрентов - проблемы в блокировщике рекламы AdBlock. #хорошегоДня!


Статистика раздачи
Размер:  373 MB   |    Зарегистрирован:  5 лет 8 месяцев   |    .torrent скачан:  33 раза   |   
Раздают:  1  
   
Загрузка...
 
Автор Сообщение

Umakiro

avatar Umakiro


Billy Thompson - A Better Man

Жанр: Blues
Год издания диска: 2010
Аудиокодек: APE (*.ape)
Тип рипа: image+.cue
Битрейт аудио: lossless
Продолжительность: 58:52
Источник (релизер): пиратка
Наличие сканов в содержимом раздачи: да
Треклист:
01. Are You Ready? [0:04:20.44]
02. A Better Man [0:04:38.82]
03. Johnny Is A Cloud [0:03:35.34]
04. Noreen [0:04:32.48]
05. Born Again [0:05:01.72]
06. No More Goodbyes [0:04:44.34]
07. Met My Match [0:04:24.65]
08. Who Knew [0:05:25.22]
09. Downside Up [0:03:35.69]
10. Oneness [0:04:06.32]
11. Bleed [0:04:48.77]
12. As If [0:05:27.50]
13. Up In The Morning [0:04:10.56]
 
Exact Audio Copy V0.99 prebeta 4 from 23. January 2008

Отчёт EAC об извлечении, выполненном 3. августа 2011, 10:03

Billy Thompson / A Better Man

Дисковод: Optiarc DVD RW AD-7173A Adapter: 0 ID: 1

Режим чтения : ДостоверностьИспользование точного потока : ДаОтключение кэша аудио : ДаИспользование указателей C2 : Нет

Коррекция смещения при чтении : 48Способность читать области Lead-in и Lead-out : НетЗаполнение пропущенных сэмплов тишиной : ДаУдаление блоков с тишиной в начале и конце : НетПри вычислениях CRC использовались нулевые сэмплы : ДаИнтерфейс : Встроенный Win32-интерфейс для Win NT/2000

Выходной формат : Внутренние WAV-операцииФормат сэмплов : 44.100 Гц; 16 бит; стерео

TOC извлечённого CD

Трек | Старт | Длительность | Начальный сектор | Конечный сектор --------------------------------------------------------------------- 1 | 0:00.00 | 4:20.33 | 0 | 19532 2 | 4:20.33 | 4:38.62 | 19533 | 40444 3 | 8:59.20 | 3:35.26 | 40445 | 56595 4 | 12:34.46 | 4:32.36 | 56596 | 77031 5 | 17:07.07 | 5:01.54 | 77032 | 99660 6 | 22:08.61 | 4:44.26 | 99661 | 120986 7 | 26:53.12 | 4:24.49 | 120987 | 140835 8 | 31:17.61 | 5:25.17 | 140836 | 165227 9 | 36:43.03 | 3:35.52 | 165228 | 181404 10 | 40:18.55 | 4:06.24 | 181405 | 199878 11 | 44:25.04 | 4:48.58 | 199879 | 221536 12 | 49:13.62 | 5:27.38 | 221537 | 246099 13 | 54:41.25 | 4:10.42 | 246100 | 264891

Характеристики диапазона извлечения и сообщения об ошибках

Выбранный диапазон

Имя файла E:\РАЗДАЧИ\Новая папка (3)\Billy Thompson - A Better Man.wav

Пиковый уровень 98.8 % Качество диапазона 100.0 % CRC теста 564646FD CRC копии 564646FD Копирование... OK

Ошибок не произошло

AccurateRip: сводка

Трек 1 нет в базе данныхТрек 2 нет в базе данныхТрек 3 нет в базе данныхТрек 4 нет в базе данныхТрек 5 нет в базе данныхТрек 6 нет в базе данныхТрек 7 нет в базе данныхТрек 8 нет в базе данныхТрек 9 нет в базе данныхТрек 10 нет в базе данныхТрек 11 нет в базе данныхТрек 12 нет в базе данныхТрек 13 нет в базе данных

Ни одного трека нет в базе AccurateRip

Конец отчёта


Трекер:  [ 27-Янв-2012 18:23 ]

  

Скачать .torrent

Размер .torrent файла 15 KB


Размер: 373 MB
Хэш (hash) релиза: 822ab6c616df5c65e668fe2c4c93b55f295f0ee7

Еще никто не оставлял запись к записи скачать торрент Billy Thompson - A Better Man - 2010, APE . Будь первым!

!Обратная связь