Скачать через торрент музыку The Paul Warren Project - Round Trip - 2011, APE бесплатно без регистрации torrent

Если у вас наблюдаются проблемы со скриншотами, переходом по ссылками, скачиванием торрентов - проблемы в блокировщике рекламы AdBlock. #хорошегоДня!


Статистика раздачи
Размер:  376 MB   |    Зарегистрирован:  5 лет 8 месяцев   |    .torrent скачан:  39 раз   |   
Раздают:  1  
   
Загрузка...
 
Автор Сообщение

Umakiro

avatar Umakiro


The Paul Warren Project - Round Trip

Жанр: Blues/Rock
Год издания диска: 2011
Аудиокодек: APE (*.ape)
Тип рипа: image+.cue
Битрейт аудио: lossless
Продолжительность: 51:43
Источник (релизер): пиратка
Наличие сканов в содержимом раздачи: да
Треклист:
01. Back Where I Belong [0:05:07.94]
02. Can't Go Home [0:04:54.32]
03. High Price to Pay [0:05:05.45]
04. Low Self Esteem (A Love Story) [0:04:53.88]
05. Turn Your Back On Love [0:04:30.86]
06. Motown [0:03:31.45]
07. Love On [0:04:18.24]
08. Made to be Loved [0:03:59.22]
09. Slow Simmer Man [0:03:18.14]
10. Goodbye Loralie [0:04:53.40]
11. Sweet Sixteen [0:03:29.52]
12. Gotta Rock [0:02:45.52]
13. I Love My Baby [0:00:54.77]
 
Exact Audio Copy V0.99 prebeta 4 from 23. January 2008

Отчёт EAC об извлечении, выполненном 3. августа 2011, 1:32

Paul Warren / Round Trip

Дисковод: Optiarc DVD RW AD-7173A Adapter: 0 ID: 1

Режим чтения : ДостоверностьИспользование точного потока : ДаОтключение кэша аудио : ДаИспользование указателей C2 : Нет

Коррекция смещения при чтении : 48Способность читать области Lead-in и Lead-out : НетЗаполнение пропущенных сэмплов тишиной : ДаУдаление блоков с тишиной в начале и конце : НетПри вычислениях CRC использовались нулевые сэмплы : ДаИнтерфейс : Встроенный Win32-интерфейс для Win NT/2000

Выходной формат : Внутренние WAV-операцииФормат сэмплов : 44.100 Гц; 16 бит; стерео

TOC извлечённого CD

Трек | Старт | Длительность | Начальный сектор | Конечный сектор --------------------------------------------------------------------- 1 | 0:00.00 | 5:07.71 | 0 | 23095 2 | 5:07.71 | 4:54.24 | 23096 | 45169 3 | 10:02.20 | 5:05.34 | 45170 | 68078 4 | 15:07.54 | 4:53.66 | 68079 | 90119 5 | 20:01.45 | 4:30.65 | 90120 | 110434 6 | 24:32.35 | 3:31.34 | 110435 | 126293 7 | 28:03.69 | 4:18.18 | 126294 | 145661 8 | 32:22.12 | 3:59.17 | 145662 | 163603 9 | 36:21.29 | 3:18.11 | 163604 | 178464 10 | 39:39.40 | 4:53.30 | 178465 | 200469 11 | 44:32.70 | 3:29.39 | 200470 | 216183 12 | 48:02.34 | 2:45.39 | 216184 | 228597 13 | 50:47.73 | 0:54.58 | 228598 | 232705

Характеристики диапазона извлечения и сообщения об ошибках

Выбранный диапазон

Имя файла E:\РАЗДАЧИ\Новая папка (2)\Paul Warren - Round Trip.wav

Пиковый уровень 99.1 % Качество диапазона 100.0 % CRC теста 768B741A CRC копии 768B741A Копирование... OK

Ошибок не произошло

AccurateRip: сводка

Трек 1 нет в базе данныхТрек 2 нет в базе данныхТрек 3 нет в базе данныхТрек 4 нет в базе данныхТрек 5 нет в базе данныхТрек 6 нет в базе данныхТрек 7 нет в базе данныхТрек 8 нет в базе данныхТрек 9 нет в базе данныхТрек 10 нет в базе данныхТрек 11 нет в базе данныхТрек 12 нет в базе данныхТрек 13 нет в базе данных

Ни одного трека нет в базе AccurateRip

Конец отчёта


Трекер:  [ 27-Янв-2012 18:22 ]

  

Скачать .torrent

Размер .torrent файла 15 KB


Размер: 376 MB
Хэш (hash) релиза: 4001327f31e5f22407fd484c3eb8975041b87f0f

Еще никто не оставлял запись к записи скачать торрент The Paul Warren Project - Round Trip - 2011, APE . Будь первым!

!Обратная связь