Скачать через торрент музыку The John Oleary Band - Two For The Show - 2010, APE бесплатно без регистрации torrent

Если у вас наблюдаются проблемы со скриншотами, переходом по ссылками, скачиванием торрентов - проблемы в блокировщике рекламы AdBlock. #хорошегоДня!


Статистика раздачи
Размер:  695 MB   |    Зарегистрирован:  5 лет 8 месяцев   |    .torrent скачан:  35 раз   |   
Раздают:  1  
   
Загрузка...
 
Автор Сообщение

Umakiro

avatar Umakiro


The John O'leary Band - Two For The Show

Жанр: Blues
Год издания диска: 2010
Аудиокодек: APE (*.ape)
Тип рипа: image+.cue
Битрейт аудио: lossless
Продолжительность:51:09+1:10:18
Источник (релизер): CD
Наличие сканов в содержимом раздачи: нет
Треклист:
01. Early In The Morning [0:04:24.53]
02. Snatch It Back [0:04:13.28]
03. I'm Tired [0:04:21.54]
04. Blue Water [0:03:04.00]
05. Who's Been Talking [0:05:25.08]
06. Waiting For You [0:04:12.93]
07. And Everything [0:04:30.69]
08. House Of Ice [0:04:09.50]
09. Black Cat Bone [0:03:53.13]
10. Move Away [0:04:39.17]
11. Chiswick Roundabout [0:04:28.53]
12. Save My Soul [0:03:46.34]
 
Exact Audio Copy V0.99 prebeta 4 from 23. January 2008

Отчёт EAC об извлечении, выполненном 26. ноября 2011, 12:58

The John O'leary Band / Two For The Show Cd1 Sins

Дисковод: Optiarc DVD RW AD-7173A Adapter: 0 ID: 1

Режим чтения : ДостоверностьИспользование точного потока : ДаОтключение кэша аудио : ДаИспользование указателей C2 : Нет

Коррекция смещения при чтении : 48Способность читать области Lead-in и Lead-out : НетЗаполнение пропущенных сэмплов тишиной : ДаУдаление блоков с тишиной в начале и конце : НетПри вычислениях CRC использовались нулевые сэмплы : ДаИнтерфейс : Встроенный Win32-интерфейс для Win NT/2000

Выходной формат : Внутренние WAV-операцииФормат сэмплов : 44.100 Гц; 16 бит; стерео

TOC извлечённого CD

Трек | Старт | Длительность | Начальный сектор | Конечный сектор --------------------------------------------------------------------- 1 | 0:00.00 | 4:24.40 | 0 | 19839 2 | 4:24.40 | 4:13.21 | 19840 | 38835 3 | 8:37.61 | 4:21.41 | 38836 | 58451 4 | 12:59.27 | 3:04.00 | 58452 | 72251 5 | 16:03.27 | 5:25.06 | 72252 | 96632 6 | 21:28.33 | 4:12.70 | 96633 | 115602 7 | 25:41.28 | 4:30.52 | 115603 | 135904 8 | 30:12.05 | 4:09.38 | 135905 | 154617 9 | 34:21.43 | 3:53.10 | 154618 | 172102 10 | 38:14.53 | 4:39.13 | 172103 | 193040 11 | 42:53.66 | 4:28.40 | 193041 | 213180 12 | 47:22.31 | 3:46.26 | 213181 | 230156

Характеристики диапазона извлечения и сообщения об ошибках

Выбранный диапазон

Имя файла E:\РАЗДАЧИ 2\The John O'leary Band - Two For The Show\CD 1\The John O'leary Band - Two For The Show Cd1 Sins.wav

Пиковый уровень 99.9 % Качество диапазона 100.0 % CRC теста 92326228 CRC копии 92326228 Копирование... OK

Ошибок не произошло

AccurateRip: сводка

Трек 1 нет в базе данныхТрек 2 нет в базе данныхТрек 3 нет в базе данныхТрек 4 нет в базе данныхТрек 5 нет в базе данныхТрек 6 нет в базе данныхТрек 7 нет в базе данныхТрек 8 нет в базе данныхТрек 9 нет в базе данныхТрек 10 нет в базе данныхТрек 11 нет в базе данныхТрек 12 нет в базе данных

Ни одного трека нет в базе AccurateRip

Конец отчёта
Треклист:
01. Born In Chicago [0:07:32.04]
02. Snatch It Back [0:07:41.77]
03. Early In The Morning [0:10:15.86]
04. Butterfingers [0:07:45.42]
05. Little By Little [0:07:47.46]
06. Who's Been Talking [0:11:17.18]
07. Black Cat Bone [0:11:11.02]
08. Look On Yonder's Wall [0:06:47.12]
Exact Audio Copy V0.99 prebeta 4 from 23. January 2008

Отчёт EAC об извлечении, выполненном 26. ноября 2011, 14:32

The John O'leary Band / Two For The Show Cd 2 Live' At Mr. Kyps

Дисковод: Optiarc DVD RW AD-7173A Adapter: 0 ID: 1

Режим чтения : Достоверность
Использование точного потока : Да
Отключение кэша аудио : Да
Использование указателей C2 : Нет

Коррекция смещения при чтении : 48
Способность читать области Lead-in и Lead-out : Нет
Заполнение пропущенных сэмплов тишиной : Да
Удаление блоков с тишиной в начале и конце : Нет
При вычислениях CRC использовались нулевые сэмплы : Да
Интерфейс : Встроенный Win32-интерфейс для Win NT/2000

Выходной формат : Внутренние WAV-операции
Формат сэмплов : 44.100 Гц; 16 бит; стерео

TOC извлечённого CD

Трек | Старт | Длительность | Начальный сектор | Конечный сектор
---------------------------------------------------------------------
1 | 0:00.00 | 7:32.03 | 0 | 33902
2 | 7:32.03 | 7:41.58 | 33903 | 68535
3 | 15:13.61 | 10:15.65 | 68536 | 114725
4 | 25:29.51 | 7:45.32 | 114726 | 149632
5 | 33:15.08 | 7:47.35 | 149633 | 184692
6 | 41:02.43 | 11:17.14 | 184693 | 235481
7 | 52:19.57 | 11:11.02 | 235482 | 285808
8 | 63:30.59 | 6:47.09 | 285809 | 316342

Характеристики диапазона извлечения и сообщения об ошибках

Выбранный диапазон

Имя файла E:\РАЗДАЧИ 2\The John O'leary Band - Two For The Show\CD 2\The John O'leary Band - Two For The Show Cd 2 Live' At Mr. Kyps.wav

Пиковый уровень 100.0 %
Качество диапазона 99.9 %
CRC теста C3A6CA53
CRC копии C3A6CA53
Копирование... OK

Ошибок не произошло

AccurateRip: сводка

Трек 1 нет в базе данных
Трек 2 нет в базе данных
Трек 3 нет в базе данных
Трек 4 нет в базе данных
Трек 5 нет в базе данных
Трек 6 нет в базе данных
Трек 7 нет в базе данных
Трек 8 нет в базе данных

Ни одного трека нет в базе AccurateRip

Конец отчёта


Трекер:  [ 27-Янв-2012 18:21 ]

  

Скачать .torrent

Размер .torrent файла 14 KB


Размер: 695 MB
Хэш (hash) релиза: 88a7a70c846a690b34540b749d9dbab46a580d00

Еще никто не оставлял запись к записи скачать торрент The John Oleary Band - Two For The Show - 2010, APE . Будь первым!

!Обратная связь