Скачать через торрент музыку Paul Camilleri - One Step Closer - 2011, APE бесплатно без регистрации torrent

Если у вас наблюдаются проблемы со скриншотами, переходом по ссылками, скачиванием торрентов - проблемы в блокировщике рекламы AdBlock. #хорошегоДня!


Статистика раздачи
Размер:  434 MB   |    Зарегистрирован:  5 лет 8 месяцев   |    .torrent скачан:  51 раз   |   
Раздают:  1  
   
Загрузка...
 
Автор Сообщение

Umakiro

avatar Umakiro


Paul Camilleri - One Step Closer

Жанр: Blues-Rock
Год издания диска: 2011
Аудиокодек: APE (*.ape)
Тип рипа: image+.cue
Битрейт аудио: lossless
Продолжительность: 1:00:23
Источник (релизер): CD
Наличие сканов в содержимом раздачи: нет
Треклист:
01. One Step Closer [0:04:44.08]
02. Dance With Me [0:04:24.82]
03. Fire In My Heart [0:04:17.94]
04. On My Own [0:07:16.36]
05. Light Of My Life [0:07:36.89]
06. Thunderstorm [0:03:49.56]
07. Livin' On The Fast Lane [0:04:42.54]
08. Always On The Run [0:05:49.24]
09. Love Is Understood [0:03:34.06]
10. Put It Away [0:04:24.84]
11. Rock Me [0:04:13.66]
12. Movin' On [0:05:29.02]
 
Exact Audio Copy V0.99 prebeta 4 from 23. January 2008

Отчёт EAC об извлечении, выполненном 26. ноября 2011, 15:35

Paul Camilleri / One Step Closer

Дисковод: Optiarc DVD RW AD-7173A Adapter: 0 ID: 1

Режим чтения : ДостоверностьИспользование точного потока : ДаОтключение кэша аудио : ДаИспользование указателей C2 : Нет

Коррекция смещения при чтении : 48Способность читать области Lead-in и Lead-out : НетЗаполнение пропущенных сэмплов тишиной : ДаУдаление блоков с тишиной в начале и конце : НетПри вычислениях CRC использовались нулевые сэмплы : ДаИнтерфейс : Встроенный Win32-интерфейс для Win NT/2000

Выходной формат : Внутренние WAV-операцииФормат сэмплов : 44.100 Гц; 16 бит; стерео

TOC извлечённого CD

Трек | Старт | Длительность | Начальный сектор | Конечный сектор --------------------------------------------------------------------- 1 | 0:00.00 | 4:44.06 | 0 | 21305 2 | 4:44.06 | 4:24.62 | 21306 | 41167 3 | 9:08.68 | 4:17.71 | 41168 | 60513 4 | 13:26.64 | 7:16.27 | 60514 | 93240 5 | 20:43.16 | 7:36.67 | 93241 | 127507 6 | 28:20.08 | 3:49.42 | 127508 | 144724 7 | 32:09.50 | 4:42.41 | 144725 | 165915 8 | 36:52.16 | 5:49.18 | 165916 | 192108 9 | 42:41.34 | 3:34.05 | 192109 | 208163 10 | 46:15.39 | 4:24.63 | 208164 | 228026 11 | 50:40.27 | 4:13.50 | 228027 | 247051 12 | 54:54.02 | 5:29.02 | 247052 | 271728

Характеристики диапазона извлечения и сообщения об ошибках

Выбранный диапазон

Имя файла E:\РАЗДАЧИ 2\Paul Camilleri - One Step Closer\Paul Camilleri - One Step Closer.wav

Пиковый уровень 100.0 % Качество диапазона 99.9 % CRC теста 90940661 CRC копии 90940661 Копирование... OK

Ошибок не произошло

AccurateRip: сводка

Трек 1 нет в базе данныхТрек 2 нет в базе данныхТрек 3 нет в базе данныхТрек 4 нет в базе данныхТрек 5 нет в базе данныхТрек 6 нет в базе данныхТрек 7 нет в базе данныхТрек 8 нет в базе данныхТрек 9 нет в базе данныхТрек 10 нет в базе данныхТрек 11 нет в базе данныхТрек 12 нет в базе данных

Ни одного трека нет в базе AccurateRip

Конец отчёта


Трекер:  [ 27-Янв-2012 18:20 ]

  

Скачать .torrent

Размер .torrent файла 17 KB


Размер: 434 MB
Хэш (hash) релиза: 0979936cce419b2d3112c5c57c8770bc2c11ed07

zippper

Если можно, покиньте дровишек?

Хотите добавить комментарий к записи скачать торрент Paul Camilleri - One Step Closer - 2011, APE

!Обратная связь