Скачать через торрент музыку Etta James - The Dreamer - 2011, APE бесплатно без регистрации torrent

Если у вас наблюдаются проблемы со скриншотами, переходом по ссылками, скачиванием торрентов - проблемы в блокировщике рекламы AdBlock. #хорошегоДня!


Статистика раздачи
Размер:  315 MB   |    Зарегистрирован:  5 лет 8 месяцев   |    .torrent скачан:  44 раза   |   
Раздают:  1  
   
Загрузка...
 
Автор Сообщение

Umakiro

avatar Umakiro


Etta James - The Dreamer

Жанр: Blues
Год издания диска: 2011
Аудиокодек: APE (*.ape)
Тип рипа: image+.cue
Битрейт аудио: lossless
Продолжительность: 50:25
Источник (релизер): CD
Наличие сканов в содержимом раздачи: нет
Треклист:
01. Groove Me [0:04:40.02]
02. Champagne & Wine [0:03:58.62]
03. Dreamer [0:04:58.44]
04. Welcome To The Jungle [0:03:01.77]
05. Misty Blue [0:04:58.64]
06. Boondocks [0:04:12.04]
07. Cigarettes & Coffee [0:06:22.82]
08. In The Evening [0:04:47.09]
09. Too Tired [0:02:32.72]
10. That's The Chance You Take [0:03:48.57]
11. Let Me Down Easy [0:07:04.61]

К великому сожалению это последний альбом
великой блюзовой певицы.
 
Exact Audio Copy V0.99 prebeta 4 from 23. January 2008

Отчёт EAC об извлечении, выполненном 26. ноября 2011, 21:42

Etta James / The Dreamer

Дисковод: Optiarc DVD RW AD-7173A Adapter: 0 ID: 1

Режим чтения : ДостоверностьИспользование точного потока : ДаОтключение кэша аудио : ДаИспользование указателей C2 : Нет

Коррекция смещения при чтении : 48Способность читать области Lead-in и Lead-out : НетЗаполнение пропущенных сэмплов тишиной : ДаУдаление блоков с тишиной в начале и конце : НетПри вычислениях CRC использовались нулевые сэмплы : ДаИнтерфейс : Встроенный Win32-интерфейс для Win NT/2000

Выходной формат : Внутренние WAV-операцииФормат сэмплов : 44.100 Гц; 16 бит; стерео

TOC извлечённого CD

Трек | Старт | Длительность | Начальный сектор | Конечный сектор --------------------------------------------------------------------- 1 | 0:00.00 | 4:40.02 | 0 | 21001 2 | 4:40.02 | 3:58.47 | 21002 | 38898 3 | 8:38.49 | 4:58.33 | 38899 | 61281 4 | 13:37.07 | 3:01.58 | 61282 | 74914 5 | 16:38.65 | 4:58.48 | 74915 | 97312 6 | 21:37.38 | 4:12.03 | 97313 | 116215 7 | 25:49.41 | 6:22.62 | 116216 | 144927 8 | 32:12.28 | 4:47.07 | 144928 | 166459 9 | 36:59.35 | 2:32.54 | 166460 | 177913 10 | 39:32.14 | 3:48.43 | 177914 | 195056 11 | 43:20.57 | 7:04.46 | 195057 | 226902

Характеристики диапазона извлечения и сообщения об ошибках

Выбранный диапазон

Имя файла E:\РАЗДАЧИ 2\Новая папка\Etta James - The Dreamer.wav

Пиковый уровень 100.0 % Качество диапазона 99.9 % CRC теста 38BFE4AA CRC копии 38BFE4AA Копирование... OK

Ошибок не произошло

AccurateRip: сводка

Трек 1 нет в базе данныхТрек 2 нет в базе данныхТрек 3 нет в базе данныхТрек 4 нет в базе данныхТрек 5 нет в базе данныхТрек 6 нет в базе данныхТрек 7 нет в базе данныхТрек 8 нет в базе данныхТрек 9 нет в базе данныхТрек 10 нет в базе данныхТрек 11 нет в базе данных

Ни одного трека нет в базе AccurateRip

Конец отчёта


Трекер:  [ 27-Янв-2012 18:20 ]

  

Скачать .torrent

Размер .torrent файла 13 KB


Размер: 315 MB
Хэш (hash) релиза: 1a27572c2cc8dd2a5a50f6e2cc8b6f6aff92da5c

Еще никто не оставлял запись к записи скачать торрент Etta James - The Dreamer - 2011, APE . Будь первым!

!Обратная связь