Скачать через торрент музыку Savoy Brown - Voodoo Moon - 2011, APE бесплатно без регистрации torrent

Если у вас наблюдаются проблемы со скриншотами, переходом по ссылками, скачиванием торрентов - проблемы в блокировщике рекламы AdBlock. #хорошегоДня!


Статистика раздачи
Размер:  266 MB   |    Зарегистрирован:  5 лет 8 месяцев   |    .torrent скачан:  38 раз   |   
Раздают:  1  
   
Загрузка...
 
Автор Сообщение

Umakiro

avatar Umakiro


Savoy Brown - Voodoo Moon

Жанр: Blues-Rock
Год издания диска: 2011
Аудиокодек: APE (*.ape)
Тип рипа: image+.cue
Битрейт аудио: lossless
Продолжительность: 45:37
Источник (релизер): CD
Наличие сканов в содержимом раздачи: нет
Треклист:
01. Shockwave [0:05:19.50]
02. Natural man [0:05:59.60]
03. To Much Money [0:04:11.94]
04. She's Got The Heat [0:03:51.68]
05. Look At The Sun [0:05:05.36]
06. 24\7 [0:04:30.37]
07. Round And Round [0:04:45.90]
08. Voodoo Moon [0:06:55.37]
09. Meet The Blues Head On [0:04:57.16]
 
Exact Audio Copy V0.99 prebeta 4 from 23. January 2008

Отчёт EAC об извлечении, выполненном 26. ноября 2011, 20:22

Savoy Brown / Voodoo Moon

Дисковод: Optiarc DVD RW AD-7173A Adapter: 0 ID: 1

Режим чтения : ДостоверностьИспользование точного потока : ДаОтключение кэша аудио : ДаИспользование указателей C2 : Нет

Коррекция смещения при чтении : 48Способность читать области Lead-in и Lead-out : НетЗаполнение пропущенных сэмплов тишиной : ДаУдаление блоков с тишиной в начале и конце : НетПри вычислениях CRC использовались нулевые сэмплы : ДаИнтерфейс : Встроенный Win32-интерфейс для Win NT/2000

Выходной формат : Внутренние WAV-операцииФормат сэмплов : 44.100 Гц; 16 бит; стерео

TOC извлечённого CD

Трек | Старт | Длительность | Начальный сектор | Конечный сектор --------------------------------------------------------------------- 1 | 0:00.00 | 5:19.38 | 0 | 23962 2 | 5:19.38 | 5:59.45 | 23963 | 50932 3 | 11:19.08 | 4:11.71 | 50933 | 69828 4 | 15:31.04 | 3:51.51 | 69829 | 87204 5 | 19:22.55 | 5:05.27 | 87205 | 110106 6 | 24:28.07 | 4:30.28 | 110107 | 130384 7 | 28:58.35 | 4:45.68 | 130385 | 151827 8 | 33:44.28 | 6:55.28 | 151828 | 182980 9 | 40:39.56 | 4:57.12 | 182981 | 205267

Характеристики диапазона извлечения и сообщения об ошибках

Выбранный диапазон

Имя файла E:\РАЗДАЧИ 2\Savoy Brown - Voodoo Moon\Savoy Brown - Voodoo Moon.wav

Пиковый уровень 100.0 % Качество диапазона 100.0 % CRC теста C242FD43 CRC копии C242FD43 Копирование... OK

Ошибок не произошло

AccurateRip: сводка

Трек 1 нет в базе данныхТрек 2 нет в базе данныхТрек 3 нет в базе данныхТрек 4 нет в базе данныхТрек 5 нет в базе данныхТрек 6 нет в базе данныхТрек 7 нет в базе данныхТрек 8 нет в базе данныхТрек 9 нет в базе данных

Ни одного трека нет в базе AccurateRip

Конец отчёта


Трекер:  [ 27-Янв-2012 18:19 ]

  

Скачать .torrent

Размер .torrent файла 11 KB


Размер: 266 MB
Хэш (hash) релиза: c726778c0fab23329d7d49918190cbac9d2751f4

Еще никто не оставлял запись к записи скачать торрент Savoy Brown - Voodoo Moon - 2011, APE . Будь первым!

!Обратная связь