Скачать через торрент музыку Johnny Lennartsson Group - Feel The Fire - 2010, APE бесплатно без регистрации torrent

Если у вас наблюдаются проблемы со скриншотами, переходом по ссылками, скачиванием торрентов - проблемы в блокировщике рекламы AdBlock. #хорошегоДня!


Статистика раздачи
Размер:  370 MB   |    Зарегистрирован:  5 лет 8 месяцев   |    .torrent скачан:  43 раза   |   
Раздают:  1  
   
Загрузка...
 
Автор Сообщение

Umakiro

avatar Umakiro


Johnny Lennartsson Group - Feel The Fire

Жанр: Blues-Rock
Год издания диска: 2010
Аудиокодек: APE (*.ape)
Тип рипа: image+.cue
Битрейт аудио: lossless
Продолжительность: 54:55
Источник (релизер): CD
Наличие сканов в содержимом раздачи: нет
Треклист:
01. Feel The Fire [0:04:42.00]
02. City [0:05:12.00]
03. Hold On [0:04:46.49]
04. He's Doing It For You [0:06:02.18]
05. I'm A Believer [0:03:16.30]
06. Feel Alright [0:03:49.00]
07. See The Light [0:04:33.76]
08. The Train Is Coming [0:06:07.05]
09. Mr Landau [0:05:37.37]
10. Overdrive [0:04:04.74]
11. It's Ok To Be Tired [0:06:44.01]
 
Exact Audio Copy V0.99 prebeta 4 from 23. January 2008

Отчёт EAC об извлечении, выполненном 26. ноября 2011, 22:42

Johnny Lennartsson Group / Feel The Fire

Дисковод: Optiarc DVD RW AD-7173A Adapter: 0 ID: 1

Режим чтения : ДостоверностьИспользование точного потока : ДаОтключение кэша аудио : ДаИспользование указателей C2 : Нет

Коррекция смещения при чтении : 48Способность читать области Lead-in и Lead-out : НетЗаполнение пропущенных сэмплов тишиной : ДаУдаление блоков с тишиной в начале и конце : НетПри вычислениях CRC использовались нулевые сэмплы : ДаИнтерфейс : Встроенный Win32-интерфейс для Win NT/2000

Выходной формат : Внутренние WAV-операцииФормат сэмплов : 44.100 Гц; 16 бит; стерео

TOC извлечённого CD

Трек | Старт | Длительность | Начальный сектор | Конечный сектор --------------------------------------------------------------------- 1 | 0:00.00 | 4:42.00 | 0 | 21149 2 | 4:42.00 | 5:12.00 | 21150 | 44549 3 | 9:54.00 | 4:46.37 | 44550 | 66036 4 | 14:40.37 | 6:02.14 | 66037 | 93200 5 | 20:42.51 | 3:16.23 | 93201 | 107923 6 | 23:58.74 | 3:49.00 | 107924 | 125098 7 | 27:47.74 | 4:33.57 | 125099 | 145630 8 | 32:21.56 | 6:07.04 | 145631 | 173159 9 | 38:28.60 | 5:37.28 | 173160 | 198462 10 | 44:06.13 | 4:04.56 | 198463 | 216818 11 | 48:10.69 | 6:44.01 | 216819 | 247119

Характеристики диапазона извлечения и сообщения об ошибках

Выбранный диапазон

Имя файла E:\РАЗДАЧИ 2\Новая папка (2)\Johnny Lennartsson Group - Feel The Fire.wav

Пиковый уровень 99.6 % Качество диапазона 100.0 % CRC теста DFA95DC8 CRC копии DFA95DC8 Копирование... OK

Ошибок не произошло

AccurateRip: сводка

Трек 1 нет в базе данныхТрек 2 нет в базе данныхТрек 3 нет в базе данныхТрек 4 нет в базе данныхТрек 5 нет в базе данныхТрек 6 нет в базе данныхТрек 7 нет в базе данныхТрек 8 нет в базе данныхТрек 9 нет в базе данныхТрек 10 нет в базе данныхТрек 11 нет в базе данных

Ни одного трека нет в базе AccurateRip

Конец отчёта


Трекер:  [ 27-Янв-2012 18:19 ]

  

Скачать .torrent

Размер .torrent файла 15 KB


Размер: 370 MB
Хэш (hash) релиза: a27f6b47c6e52b59c5c0689e33b3aae7c0e6e454

Еще никто не оставлял запись к записи скачать торрент Johnny Lennartsson Group - Feel The Fire - 2010, APE . Будь первым!

!Обратная связь