Скачать через торрент музыку Gugun Power Trio - Solid Ground - 2011, APE бесплатно без регистрации torrent

Если у вас наблюдаются проблемы со скриншотами, переходом по ссылками, скачиванием торрентов - проблемы в блокировщике рекламы AdBlock. #хорошегоДня!


Статистика раздачи
Размер:  443 MB   |    Зарегистрирован:  5 лет 8 месяцев   |    .torrent скачан:  31 раз   |   
Раздают:  1  
   
Загрузка...
 
Автор Сообщение

Umakiro

avatar Umakiro


Gugun Power Trio - Solid Ground

Жанр: Blues-Rock
Год издания диска: 2011
Аудиокодек: APE (*.ape)
Тип рипа: image+.cue
Битрейт аудио: lossless
Продолжительность: 1:03:01
Источник (релизер): CD
Наличие сканов в содержимом раздачи: нет
Треклист:
01-Solid Ground [0:03:31.64]
02-One Heavy Night [0:04:05.64]
03-Soul On Fire [0:04:18.64]
04-Vixen Eyes [0:04:16.64]
05-Mission [0:05:54.64]
06-Trampled Rose [0:07:46.64]
07-Silent Rider [0:04:36.64]
08-I'm Juicy [0:05:28.64]
09-Funky Chicken [0:06:10.64]
10-Marching Strut [0:08:16.64]
11-Crystal Mountains (Bonus Track) [0:08:34.64]
 
Exact Audio Copy V0.99 prebeta 4 from 23. January 2008

Отчёт EAC об извлечении, выполненном 3. декабря 2011, 20:14

Gugun Power Trio / Solid Ground

Дисковод: Optiarc DVD RW AD-7173A Adapter: 0 ID: 1

Режим чтения : ДостоверностьИспользование точного потока : ДаОтключение кэша аудио : ДаИспользование указателей C2 : Нет

Коррекция смещения при чтении : 48Способность читать области Lead-in и Lead-out : НетЗаполнение пропущенных сэмплов тишиной : ДаУдаление блоков с тишиной в начале и конце : НетПри вычислениях CRC использовались нулевые сэмплы : ДаИнтерфейс : Встроенный Win32-интерфейс для Win NT/2000

Выходной формат : Внутренние WAV-операцииФормат сэмплов : 44.100 Гц; 16 бит; стерео

TOC извлечённого CD

Трек | Старт | Длительность | Начальный сектор | Конечный сектор --------------------------------------------------------------------- 1 | 0:00.00 | 3:31.48 | 0 | 15872 2 | 3:31.48 | 4:05.48 | 15873 | 34295 3 | 7:37.21 | 4:18.48 | 34296 | 53693 4 | 11:55.69 | 4:16.48 | 53694 | 72941 5 | 16:12.42 | 5:54.48 | 72942 | 99539 6 | 22:07.15 | 7:46.48 | 99540 | 134537 7 | 29:53.63 | 4:36.48 | 134538 | 155285 8 | 34:30.36 | 5:28.48 | 155286 | 179933 9 | 39:59.09 | 6:10.48 | 179934 | 207731 10 | 46:09.57 | 8:16.48 | 207732 | 244979 11 | 54:26.30 | 8:34.48 | 244980 | 283577

Характеристики диапазона извлечения и сообщения об ошибках

Выбранный диапазон

Имя файла E:\РАЗДАЧИ 2\Новая папка\Gugun Power Trio - Solid Ground.wav

Пиковый уровень 98.8 % Качество диапазона 100.0 % CRC теста 7176D0FD CRC копии 7176D0FD Копирование... OK

Ошибок не произошло

AccurateRip: сводка

Трек 1 нет в базе данныхТрек 2 нет в базе данныхТрек 3 нет в базе данныхТрек 4 нет в базе данныхТрек 5 нет в базе данныхТрек 6 нет в базе данныхТрек 7 нет в базе данныхТрек 8 нет в базе данныхТрек 9 нет в базе данныхТрек 10 нет в базе данныхТрек 11 нет в базе данных

Ни одного трека нет в базе AccurateRip

Конец отчёта


Трекер:  [ 27-Янв-2012 18:18 ]

  

Скачать .torrent

Размер .torrent файла 18 KB


Размер: 443 MB
Хэш (hash) релиза: 8ad2f6e4fbbe6cc0dd06ca233e6fabfd9ec755ef

Еще никто не оставлял запись к записи скачать торрент Gugun Power Trio - Solid Ground - 2011, APE . Будь первым!

!Обратная связь