Скачать через торрент музыку David Gogo - Soul Bender - 2011, APE бесплатно без регистрации torrent

Если у вас наблюдаются проблемы со скриншотами, переходом по ссылками, скачиванием торрентов - проблемы в блокировщике рекламы AdBlock. #хорошегоДня!


Статистика раздачи
Размер:  270 MB   |    Зарегистрирован:  5 лет 8 месяцев   |    .torrent скачан:  31 раз   |   
Раздают:  1  
   
Загрузка...
 
Автор Сообщение

Umakiro

avatar Umakiro


David Gogo - Soul Bender

Жанр: Blues
Год издания диска: 2011
Аудиокодек: APE (*.ape)
Тип рипа: image+.cue
Битрейт аудио: lossless
Продолжительность: 40:23
Источник (релизер): CD
Наличие сканов в содержимом раздачи: нет
Треклист:
01. Please Find My Baby [0:03:33.58]
02. Slow It Down [0:04:00.70]
03. Was It Love [0:03:23.44]
04. Time Is Killing Me [0:05:01.05]
05. I Found A Love [0:04:11.52]
06. The Changeling [0:04:05.54]
07. Gettin' Old [0:03:07.58]
08. The Way You Make Me Feel [0:04:02.68]
09. Do You Know How It Feels [0:03:20.45]
10. Whiskey Train [0:05:36.61]
 
Exact Audio Copy V0.99 prebeta 4 from 23. January 2008

Отчёт EAC об извлечении, выполненном 3. декабря 2011, 19:11

David Gogo / Soul Bender

Дисковод: Optiarc DVD RW AD-7173A Adapter: 0 ID: 1

Режим чтения : ДостоверностьИспользование точного потока : ДаОтключение кэша аудио : ДаИспользование указателей C2 : Нет

Коррекция смещения при чтении : 48Способность читать области Lead-in и Lead-out : НетЗаполнение пропущенных сэмплов тишиной : ДаУдаление блоков с тишиной в начале и конце : НетПри вычислениях CRC использовались нулевые сэмплы : ДаИнтерфейс : Встроенный Win32-интерфейс для Win NT/2000

Выходной формат : Внутренние WAV-операцииФормат сэмплов : 44.100 Гц; 16 бит; стерео

TOC извлечённого CD

Трек | Старт | Длительность | Начальный сектор | Конечный сектор --------------------------------------------------------------------- 1 | 0:00.00 | 3:33.44 | 0 | 16018 2 | 3:33.44 | 4:00.53 | 16019 | 34071 3 | 7:34.22 | 3:23.33 | 34072 | 49329 4 | 10:57.55 | 5:01.04 | 49330 | 71908 5 | 15:58.59 | 4:11.39 | 71909 | 90772 6 | 20:10.23 | 4:05.41 | 90773 | 109188 7 | 24:15.64 | 3:07.44 | 109189 | 123257 8 | 27:23.33 | 4:02.51 | 123258 | 141458 9 | 31:26.09 | 3:20.34 | 141459 | 156492 10 | 34:46.43 | 5:36.46 | 156493 | 181738

Характеристики диапазона извлечения и сообщения об ошибках

Выбранный диапазон

Имя файла E:\РАЗДАЧИ 2\Новая папка\David Gogo - Soul Bender.wav

Пиковый уровень 98.8 % Качество диапазона 100.0 % CRC теста 2BCF6116 CRC копии 2BCF6116 Копирование... OK

Ошибок не произошло

AccurateRip: сводка

Трек 1 нет в базе данныхТрек 2 нет в базе данныхТрек 3 нет в базе данныхТрек 4 нет в базе данныхТрек 5 нет в базе данныхТрек 6 нет в базе данныхТрек 7 нет в базе данныхТрек 8 нет в базе данныхТрек 9 нет в базе данныхТрек 10 нет в базе данных

Ни одного трека нет в базе AccurateRip

Конец отчёта


Трекер:  [ 27-Янв-2012 18:18 ]

  

Скачать .torrent

Размер .torrent файла 11 KB


Размер: 270 MB
Хэш (hash) релиза: f613a59dce0556213f5b91f4a7b355eb34d151f0

Еще никто не оставлял запись к записи скачать торрент David Gogo - Soul Bender - 2011, APE . Будь первым!

!Обратная связь