Скачать через торрент музыку Alex Caporuscio - Alex Caporuscio - 2010, бесплатно без регистрации torrent

Если у вас наблюдаются проблемы со скриншотами, переходом по ссылками, скачиванием торрентов - проблемы в блокировщике рекламы AdBlock. #хорошегоДня!


Статистика раздачи
Размер:  221 MB   |    Зарегистрирован:  5 лет 8 месяцев   |    .torrent скачан:  29 раз   |   
Раздают:  1  
   
Загрузка...
 
Автор Сообщение

Umakiro

avatar Umakiro


Alex Caporuscio - Alex Caporuscio

Жанр: Blues-Rock
Год издания диска: 2010
Аудиокодек: APE (*.ape)
Тип рипа: image+.cue
Битрейт аудио: lossless
Продолжительность: 31:16
Источник (релизер): CD
Наличие сканов в содержимом раздачи: да
Треклист:
01. I Feel Brand New [0:03:24.34]
02. Big Trouble [0:03:23.14]
03. When You Lose Your Women [0:06:15.00]
04. My Own Stamp [0:02:15.86]
05. Fishin' Wit Da Wrong Bait [0:04:08.88]
06. Don?t Worry Baby [0:02:47.00]
07. Outside Woman Blues [0:03:16.18]
08. The Very Thought of You [0:03:40.53]
09. WHAT!? [0:02:05.42]
 
Exact Audio Copy V0.99 prebeta 4 from 23. January 2008

Отчёт EAC об извлечении, выполненном 30. декабря 2011, 15:22

Alex Caporuscio / Alex Caporuscio

Дисковод: Optiarc DVD RW AD-7173A Adapter: 0 ID: 1

Режим чтения : ДостоверностьИспользование точного потока : ДаОтключение кэша аудио : ДаИспользование указателей C2 : Нет

Коррекция смещения при чтении : 48Способность читать области Lead-in и Lead-out : НетЗаполнение пропущенных сэмплов тишиной : ДаУдаление блоков с тишиной в начале и конце : НетПри вычислениях CRC использовались нулевые сэмплы : ДаИнтерфейс : Встроенный Win32-интерфейс для Win NT/2000

Выходной формат : Внутренние WAV-операцииФормат сэмплов : 44.100 Гц; 16 бит; стерео

TOC извлечённого CD

Трек | Старт | Длительность | Начальный сектор | Конечный сектор --------------------------------------------------------------------- 1 | 0:00.00 | 3:24.26 | 0 | 15325 2 | 3:24.26 | 3:23.11 | 15326 | 30561 3 | 6:47.37 | 6:15.00 | 30562 | 58686 4 | 13:02.37 | 2:15.65 | 58687 | 68876 5 | 15:18.27 | 4:08.66 | 68877 | 87542 6 | 19:27.18 | 2:47.00 | 87543 | 100067 7 | 22:14.18 | 3:16.14 | 100068 | 114781 8 | 25:30.32 | 3:40.40 | 114782 | 131321 9 | 29:10.72 | 2:05.32 | 131322 | 140728

Характеристики диапазона извлечения и сообщения об ошибках

Выбранный диапазон

Имя файла E:\РАЗДАЧИ\Alex Caporuscio - Alex Caporuscio\Alex Caporuscio - Alex Caporuscio.wav

Пиковый уровень 100.0 % Качество диапазона 100.0 % CRC теста F0D46EE5 CRC копии F0D46EE5 Копирование... OK

Ошибок не произошло

AccurateRip: сводка

Трек 1 нет в базе данныхТрек 2 нет в базе данныхТрек 3 нет в базе данныхТрек 4 нет в базе данныхТрек 5 нет в базе данныхТрек 6 нет в базе данныхТрек 7 нет в базе данныхТрек 8 нет в базе данныхТрек 9 нет в базе данных

Ни одного трека нет в базе AccurateRip

Конец отчёта


Трекер:  [ 27-Янв-2012 18:16 ]

  

Скачать .torrent

Размер .torrent файла 18 KB


Размер: 221 MB
Хэш (hash) релиза: 24e676a3d501e7efb1682450e5365b2ae03cd6a5

Еще никто не оставлял запись к записи скачать торрент Alex Caporuscio - Alex Caporuscio - 2010, . Будь первым!

!Обратная связь