Скачать через торрент музыку Sista Monica Parker - Living in the Danger Zone - 2011, бесплатно без регистрации torrent

Если у вас наблюдаются проблемы со скриншотами, переходом по ссылками, скачиванием торрентов - проблемы в блокировщике рекламы AdBlock. #хорошегоДня!


Статистика раздачи
Размер:  417 MB   |    Зарегистрирован:  5 лет 8 месяцев   |    .torrent скачан:  36 раз   |   
Раздают:  1  
   
Загрузка...
 
Автор Сообщение

Umakiro

avatar Umakiro


Sista Monica Parker - Living in the Danger Zone

Жанр: Blues
Год издания диска: 2011
Аудиокодек: APE (*.ape)
Тип рипа: image+.cue
Битрейт аудио: lossless
Продолжительность: 58:56
Источник (релизер): CD
Наличие сканов в содержимом раздачи: да
Треклист:
01. Hug Me Like You Love Me [0:04:28.89]
02. LIving in the Danger Zone [0:03:49.49]
03. Tears [0:06:13.62]
04. No Shame In My Game [0:03:46.90]
05. Fierce Force of Nature [0:03:30.88]
06. Let Me Moan [0:04:10.57]
07. Worn Out Your Welcome [0:04:29.38]
08. Unstoppable [0:04:25.58]
09. You Can't Go Back [0:04:30.82]
10. The Forecast Calls For Pain [0:04:03.98]
11. Sending You On Your Way [0:03:25.58]
12. Once Loved Twice Bitten [0:03:25.40]
13. Just Keep Living [0:03:40.97]
14. Glory Hallelujah [0:04:54.14]
 
Exact Audio Copy V0.99 prebeta 4 from 23. January 2008

Отчёт EAC об извлечении, выполненном 30. декабря 2011, 16:14

Sista Monica Parker / Living in the Danger Zone

Дисковод: Optiarc DVD RW AD-7173A Adapter: 0 ID: 1

Режим чтения : ДостоверностьИспользование точного потока : ДаОтключение кэша аудио : ДаИспользование указателей C2 : Нет

Коррекция смещения при чтении : 48Способность читать области Lead-in и Lead-out : НетЗаполнение пропущенных сэмплов тишиной : ДаУдаление блоков с тишиной в начале и конце : НетПри вычислениях CRC использовались нулевые сэмплы : ДаИнтерфейс : Встроенный Win32-интерфейс для Win NT/2000

Выходной формат : Внутренние WAV-операцииФормат сэмплов : 44.100 Гц; 16 бит; стерео

TOC извлечённого CD

Трек | Старт | Длительность | Начальный сектор | Конечный сектор --------------------------------------------------------------------- 1 | 0:00.00 | 4:28.67 | 0 | 20166 2 | 4:28.67 | 3:49.37 | 20167 | 37378 3 | 8:18.29 | 6:13.47 | 37379 | 65400 4 | 14:32.01 | 3:46.68 | 65401 | 82418 5 | 18:18.69 | 3:30.66 | 82419 | 98234 6 | 21:49.60 | 4:10.43 | 98235 | 117027 7 | 26:00.28 | 4:29.29 | 117028 | 137231 8 | 30:29.57 | 4:25.44 | 137232 | 157150 9 | 34:55.26 | 4:30.62 | 157151 | 177462 10 | 39:26.13 | 4:03.74 | 177463 | 195761 11 | 43:30.12 | 3:25.44 | 195762 | 211180 12 | 46:55.56 | 3:25.30 | 211181 | 226585 13 | 50:21.11 | 3:40.73 | 226586 | 243158 14 | 54:02.09 | 4:54.11 | 243159 | 265219

Характеристики диапазона извлечения и сообщения об ошибках

Выбранный диапазон

Имя файла E:\РАЗДАЧИ\Sista Monica Parker - Living in the Danger Zone\Sista Monica Parker - Living in the Danger Zone.wav

Пиковый уровень 97.7 % Качество диапазона 100.0 % CRC теста F1213308 CRC копии F1213308 Копирование... OK

Ошибок не произошло

AccurateRip: сводка

Трек 1 нет в базе данныхТрек 2 нет в базе данныхТрек 3 нет в базе данныхТрек 4 нет в базе данныхТрек 5 нет в базе данныхТрек 6 нет в базе данныхТрек 7 нет в базе данныхТрек 8 нет в базе данныхТрек 9 нет в базе данныхТрек 10 нет в базе данныхТрек 11 нет в базе данныхТрек 12 нет в базе данныхТрек 13 нет в базе данныхТрек 14 нет в базе данных

Ни одного трека нет в базе AccurateRip

Конец отчёта


Трекер:  [ 27-Янв-2012 18:15 ]

  

Скачать .torrent

Размер .torrent файла 17 KB


Размер: 417 MB
Хэш (hash) релиза: f26af2bbe83a8f849674ff1934e7614f0e3291cb

Еще никто не оставлял запись к записи скачать торрент Sista Monica Parker - Living in the Danger Zone - 2011, . Будь первым!

!Обратная связь