Скачать через торрент музыку Tutu Jones - Blue Texas Soul - 1995, бесплатно без регистрации torrent

Если у вас наблюдаются проблемы со скриншотами, переходом по ссылками, скачиванием торрентов - проблемы в блокировщике рекламы AdBlock. #хорошегоДня!


Статистика раздачи
Размер:  308 MB   |    Зарегистрирован:  5 лет 8 месяцев   |    .torrent скачан:  23 раза   |   
Раздают:  1  
   
Загрузка...
 
Автор Сообщение

Umakiro

avatar Umakiro


Tutu Jones - Blue Texas Soul

Жанр: Blues
Год издания диска: 1995
Аудиокодек: APE (*.ape)
Тип рипа: image+.cue
Битрейт аудио: lossless
Продолжительность: 44:'54
Источник (релизер): CD
Наличие сканов в содержимом раздачи: да
Треклист:
01. The sky is Crying [0:04:14.09]
02. Chronic Late Arriver [0:05:33.90]
03. Check Out Yourself [0:03:00.20]
04. Have You Ever Loved a Woman [0:06:29.93]
05. It's been a Mistake [0:03:49.96]
06. You Never had Love [0:04:20.53]
07. Things Are Looking Up [0:03:17.06]
08. I've Been Loving you [0:03:50.90]
09. I'll Play the Blues For You [0:04:40.02]
10. I'm Not Ashamed to Play the Blues [0:05:37.04]
 
Exact Audio Copy V0.99 prebeta 4 from 23. January 2008

Отчёт EAC об извлечении, выполненном 26. декабря 2011, 11:47

Tutu jones / Blue Texas Soul

Дисковод: Optiarc DVD RW AD-7173A Adapter: 0 ID: 1

Режим чтения : ДостоверностьИспользование точного потока : ДаОтключение кэша аудио : ДаИспользование указателей C2 : Нет

Коррекция смещения при чтении : 48Способность читать области Lead-in и Lead-out : НетЗаполнение пропущенных сэмплов тишиной : ДаУдаление блоков с тишиной в начале и конце : НетПри вычислениях CRC использовались нулевые сэмплы : ДаИнтерфейс : Встроенный Win32-интерфейс для Win NT/2000

Выходной формат : Внутренние WAV-операцииФормат сэмплов : 44.100 Гц; 16 бит; стерео

TOC извлечённого CD

Трек | Старт | Длительность | Начальный сектор | Конечный сектор --------------------------------------------------------------------- 1 | 0:00.00 | 4:14.07 | 0 | 19056 2 | 4:14.07 | 5:33.68 | 19057 | 44099 3 | 9:48.00 | 3:00.15 | 44100 | 57614 4 | 12:48.15 | 6:29.70 | 57615 | 86859 5 | 19:18.10 | 3:49.72 | 86860 | 104106 6 | 23:08.07 | 4:20.40 | 104107 | 123646 7 | 27:28.47 | 3:17.05 | 123647 | 138426 8 | 30:45.52 | 3:50.68 | 138427 | 155744 9 | 34:36.45 | 4:40.02 | 155745 | 176746 10 | 39:16.47 | 5:37.03 | 176747 | 202024

Характеристики диапазона извлечения и сообщения об ошибках

Выбранный диапазон

Имя файла D:\КОЛЛЕКЦИЯ 00\Новая папка (11)\Tutu jones - Blue Texas Soul.wav

Пиковый уровень 100.0 % Качество диапазона 99.9 % CRC теста 8D552934 CRC копии 8D552934 Копирование... OK

Ошибок не произошло

AccurateRip: сводка

Трек 1 точное извлечение (доверие 3) [F41DDD16]Трек 2 точное извлечение (доверие 3) [48265C14]Трек 3 точное извлечение (доверие 3) [4FF94DA6]Трек 4 точное извлечение (доверие 3) [C85F31A5]Трек 5 точное извлечение (доверие 3) [D8D54727]Трек 6 точное извлечение (доверие 3) [71111513]Трек 7 точное извлечение (доверие 3) [330C7733]Трек 8 точное извлечение (доверие 3) [95107353]Трек 9 точное извлечение (доверие 3) [BF7F59E9]Трек 10 точное извлечение (доверие 3) [ED990297]

Все треки извлечены точно

Конец отчёта


Трекер:  [ 27-Янв-2012 18:15 ]

  

Скачать .torrent

Размер .torrent файла 13 KB


Размер: 308 MB
Хэш (hash) релиза: e2eabd2297f1108e9f80f8923c2eaeb69d2504f1

Еще никто не оставлял запись к записи скачать торрент Tutu Jones - Blue Texas Soul - 1995, . Будь первым!

!Обратная связь