Скачать через торрент музыку Tutu Jones - Im For Real - 1994, бесплатно без регистрации torrent

Если у вас наблюдаются проблемы со скриншотами, переходом по ссылками, скачиванием торрентов - проблемы в блокировщике рекламы AdBlock. #хорошегоДня!


Статистика раздачи
Размер:  285 MB   |    Зарегистрирован:  5 лет 8 месяцев   |    .torrent скачан:  32 раза   |   
Раздают:  1  
   
Загрузка...
 
Автор Сообщение

Umakiro

avatar Umakiro


Tutu Jones - I'm For Real

Жанр: Blues
Год издания диска: 1994
Аудиокодек: APE (*.ape)
Тип рипа: image+.cue
Битрейт аудио: lossless
Продолжительность: 46:17
Источник (релизер): CD
Наличие сканов в содержимом раздачи: да
Треклист:
01. Sweet Woman [0:03:53.26]
02. I'm For Real [0:02:45.13]
03. My Own Fault [0:04:16.97]
04. Excited [0:05:01.60]
05. (Do You Love) Steppin' On Me [0:02:53.89]
06. She's My Woman [0:02:27.53]
07. I Still Love You [0:04:12.04]
08. Too Blues To Be True [0:07:35.62]
09. Stubborn Woman [0:03:21.40]
10. I'm Not Your Fool [0:04:53.06]
11. Outstanding [0:04:56.66]
 
Exact Audio Copy V0.99 prebeta 4 from 23. January 2008

Отчёт EAC об извлечении, выполненном 26. декабря 2011, 11:19

TUTU Jones / I'm For Real

Дисковод: Optiarc DVD RW AD-7173A Adapter: 0 ID: 1

Режим чтения : ДостоверностьИспользование точного потока : ДаОтключение кэша аудио : ДаИспользование указателей C2 : Нет

Коррекция смещения при чтении : 48Способность читать области Lead-in и Lead-out : НетЗаполнение пропущенных сэмплов тишиной : ДаУдаление блоков с тишиной в начале и конце : НетПри вычислениях CRC использовались нулевые сэмплы : ДаИнтерфейс : Встроенный Win32-интерфейс для Win NT/2000

Выходной формат : Внутренние WAV-операцииФормат сэмплов : 44.100 Гц; 16 бит; стерео

TOC извлечённого CD

Трек | Старт | Длительность | Начальный сектор | Конечный сектор --------------------------------------------------------------------- 1 | 0:00.32 | 3:53.20 | 32 | 17526 2 | 3:53.52 | 2:45.10 | 17527 | 29911 3 | 6:38.62 | 4:16.73 | 29912 | 49184 4 | 10:55.60 | 5:01.45 | 49185 | 71804 5 | 15:57.30 | 2:53.67 | 71805 | 84846 6 | 18:51.22 | 2:27.40 | 84847 | 95911 7 | 21:18.62 | 4:12.03 | 95912 | 114814 8 | 25:30.65 | 7:35.47 | 114815 | 148986 9 | 33:06.37 | 3:21.30 | 148987 | 164091 10 | 36:27.67 | 4:53.05 | 164092 | 186071 11 | 41:20.72 | 4:56.50 | 186072 | 208321

Характеристики диапазона извлечения и сообщения об ошибках

Выбранный диапазон

Имя файла D:\КОЛЛЕКЦИЯ 00\Новая папка (10)\TUTU Jones - I'm For Real.wav

Пиковый уровень 99.9 % Качество диапазона 99.9 % CRC теста 41C08107 CRC копии 41C08107 Копирование... OK

Ошибок не произошло

AccurateRip: сводка

Трек 1 точное извлечение (доверие 3) [637F9093]Трек 2 точное извлечение (доверие 3) [4D150236]Трек 3 точное извлечение (доверие 3) [06F1CEA9]Трек 4 точное извлечение (доверие 3) [F4005AB7]Трек 5 точное извлечение (доверие 3) [9AE98605]Трек 6 точное извлечение (доверие 3) [0D321ECA]Трек 7 точное извлечение (доверие 3) [16CBAF8B]Трек 8 точное извлечение (доверие 3) [378E791A]Трек 9 точное извлечение (доверие 3) [886896E4]Трек 10 точное извлечение (доверие 3) [9F6ED08F]Трек 11 точное извлечение (доверие 3) [D8FDB964]

Все треки извлечены точно

Конец отчёта


Трекер:  [ 27-Янв-2012 18:14 ]

  

Скачать .torrent

Размер .torrent файла 12 KB


Размер: 285 MB
Хэш (hash) релиза: 3aab9df08b5a18ff8b0c65f30a774143e96385e4

Еще никто не оставлял запись к записи скачать торрент Tutu Jones - Im For Real - 1994, . Будь первым!

!Обратная связь