Скачать через торрент музыку Tutu Jones - Staying Power - 1998, бесплатно без регистрации torrent

Если у вас наблюдаются проблемы со скриншотами, переходом по ссылками, скачиванием торрентов - проблемы в блокировщике рекламы AdBlock. #хорошегоДня!


Статистика раздачи
Размер:  237 MB   |    Зарегистрирован:  5 лет 8 месяцев   |    .torrent скачан:  32 раза   |   
Раздают:  1  
   
Загрузка...
 
Автор Сообщение

Umakiro

avatar Umakiro


Tutu Jones - Staying Power

Жанр: Blues
Год издания диска: 1998
Аудиокодек: APE (*.ape)
Тип рипа: image+.cue
Битрейт аудио: lossless
Продолжительность: 36:26
Источник (релизер): CD
Наличие сканов в содержимом раздачи: да
Треклист:
01. Daylight Caught Us Red Handed [0:04:50.89]
02. The Milkman Game [0:05:16.33]
03. Can't Leave Your Love Alone [0:02:36.20]
04. After Midnight [0:03:45.60]
05. Good Juice [0:05:41.17]
06. Be Good to Your Lady [0:02:42.86]
07. She So Fine [0:03:10.49]
08. You Shatter My Heart [0:03:39.10]
09. Romance Avenue [0:03:26.46]
10. After Loving You [0:03:16.82]
 
Exact Audio Copy V0.99 prebeta 4 from 23. January 2008

Отчёт EAC об извлечении, выполненном 25. декабря 2011, 13:12

Tutu Jones / Staying Power

Дисковод: Optiarc DVD RW AD-7173A Adapter: 0 ID: 1

Режим чтения : ДостоверностьИспользование точного потока : ДаОтключение кэша аудио : ДаИспользование указателей C2 : Нет

Коррекция смещения при чтении : 48Способность читать области Lead-in и Lead-out : НетЗаполнение пропущенных сэмплов тишиной : ДаУдаление блоков с тишиной в начале и конце : НетПри вычислениях CRC использовались нулевые сэмплы : ДаИнтерфейс : Встроенный Win32-интерфейс для Win NT/2000

Выходной формат : Внутренние WAV-операцииФормат сэмплов : 44.100 Гц; 16 бит; стерео

TOC извлечённого CD

Трек | Старт | Длительность | Начальный сектор | Конечный сектор --------------------------------------------------------------------- 1 | 0:00.00 | 4:50.67 | 0 | 21816 2 | 4:50.67 | 5:16.25 | 21817 | 45541 3 | 10:07.17 | 2:36.15 | 45542 | 57256 4 | 12:43.32 | 3:45.45 | 57257 | 74176 5 | 16:29.02 | 5:41.13 | 74177 | 99764 6 | 22:10.15 | 2:42.65 | 99765 | 111979 7 | 24:53.05 | 3:10.37 | 111980 | 126266 8 | 28:03.42 | 3:39.08 | 126267 | 142699 9 | 31:42.50 | 3:26.35 | 142700 | 158184 10 | 35:09.10 | 3:16.62 | 158185 | 172946

Характеристики диапазона извлечения и сообщения об ошибках

Выбранный диапазон

Имя файла D:\КОЛЛЕКЦИЯ 00\Новая папка (7)\Tutu Jones - Staying Power.wav

Пиковый уровень 99.8 % Качество диапазона 100.0 % CRC теста FD1F9AB8 CRC копии FD1F9AB8 Копирование... OK

Ошибок не произошло

AccurateRip: сводка

Трек 1 точное извлечение (доверие 2) [8DB7A660]Трек 2 точное извлечение (доверие 2) [82D2917C]Трек 3 точное извлечение (доверие 2) [A60F989D]Трек 4 точное извлечение (доверие 2) [8CF20F3C]Трек 5 точное извлечение (доверие 2) [9E380C43]Трек 6 точное извлечение (доверие 2) [BB28DC08]Трек 7 точное извлечение (доверие 2) [5024FB4A]Трек 8 точное извлечение (доверие 2) [BE9E0603]Трек 9 точное извлечение (доверие 2) [2424EBBB]Трек 10 точное извлечение (доверие 2) [2C597DA8]

Все треки извлечены точно

Конец отчёта


Трекер:  [ 27-Янв-2012 18:14 ]

  

Скачать .torrent

Размер .torrent файла 19 KB


Размер: 237 MB
Хэш (hash) релиза: 0a33e16354e285f2f5e351727f0cd598008391cf

Еще никто не оставлял запись к записи скачать торрент Tutu Jones - Staying Power - 1998, . Будь первым!

!Обратная связь