Скачать через торрент музыку Z. Z. Hill - Z. Z. Hill - 1995, бесплатно без регистрации torrent

Если у вас наблюдаются проблемы со скриншотами, переходом по ссылками, скачиванием торрентов - проблемы в блокировщике рекламы AdBlock. #хорошегоДня!


Статистика раздачи
Размер:  260 MB   |    Зарегистрирован:  5 лет 8 месяцев   |    .torrent скачан:  31 раз   |   
Раздают:  1  
   
Загрузка...
 
Автор Сообщение

Umakiro

avatar Umakiro


Z. Z. Hill - Z. Z. Hill

Жанр: Blues
Год издания диска: 1995
Аудиокодек: APE (*.ape)
Тип рипа: image+.cue
Битрейт аудио: lossless
Продолжительность: 34:17
Источник (релизер): CD
Наличие сканов в содержимом раздачи: да
Треклист:
01. Separate Way [0:04:10.80]
02. I'm So Lonesome I Could Cry [0:03:50.13]
03. Something Good Going On [0:03:18.02]
04. Bring It On Home To Me [0:03:29.20]
05. Please Don't Make Me (Do Something Bad To You) [0:03:55.44]
06. Chained To Your Love [0:04:21.20]
07. Rolling Stone [0:03:11.33]
08. Bump And Grind [0:03:30.73]
09. Blue Monday [0:04:29.86]
 
Exact Audio Copy V0.99 prebeta 4 from 23. January 2008

Отчёт EAC об извлечении, выполненном 29. декабря 2011, 1:19

Z. Z. Hill / Z. Z. Hill

Дисковод: Optiarc DVD RW AD-7173A Adapter: 0 ID: 1

Режим чтения : ДостоверностьИспользование точного потока : ДаОтключение кэша аудио : ДаИспользование указателей C2 : Нет

Коррекция смещения при чтении : 48Способность читать области Lead-in и Lead-out : НетЗаполнение пропущенных сэмплов тишиной : ДаУдаление блоков с тишиной в начале и конце : НетПри вычислениях CRC использовались нулевые сэмплы : ДаИнтерфейс : Встроенный Win32-интерфейс для Win NT/2000

Выходной формат : Внутренние WAV-операцииФормат сэмплов : 44.100 Гц; 16 бит; стерео

TOC извлечённого CD

Трек | Старт | Длительность | Начальный сектор | Конечный сектор --------------------------------------------------------------------- 1 | 0:00.00 | 4:10.60 | 0 | 18809 2 | 4:10.60 | 3:50.10 | 18810 | 36069 3 | 8:00.70 | 3:18.02 | 36070 | 50921 4 | 11:18.72 | 3:29.15 | 50922 | 66611 5 | 14:48.12 | 3:55.33 | 66612 | 84269 6 | 18:43.45 | 4:21.15 | 84270 | 103859 7 | 23:04.60 | 3:11.25 | 103860 | 118209 8 | 26:16.10 | 3:30.55 | 118210 | 134014 9 | 29:46.65 | 4:29.65 | 134015 | 154254

Характеристики диапазона извлечения и сообщения об ошибках

Выбранный диапазон

Имя файла D:\КОЛЛЕКЦИЯ 00\Новая папка (2)\Z. Z. Hill - Z. Z. Hill.wav

Пиковый уровень 99.9 % Качество диапазона 100.0 % CRC теста B3E3D32D CRC копии B3E3D32D Копирование... OK

Ошибок не произошло

AccurateRip: сводка

Трек 1 точное извлечение (доверие 1) [882EB882]Трек 2 точное извлечение (доверие 1) [300F1984]Трек 3 точное извлечение (доверие 1) [43E1AA10]Трек 4 точное извлечение (доверие 1) [F48EA937]Трек 5 точное извлечение (доверие 1) [EA64070E]Трек 6 точное извлечение (доверие 1) [A43EECBA]Трек 7 точное извлечение (доверие 1) [5FAEFB43]Трек 8 точное извлечение (доверие 1) [FB5D3202]Трек 9 точное извлечение (доверие 1) [37485192]

Все треки извлечены точно

Конец отчёта


Трекер:  [ 27-Янв-2012 18:14 ]

  

Скачать .torrent

Размер .torrent файла 11 KB


Размер: 260 MB
Хэш (hash) релиза: 98895d8b397506b32d24ee3c2c83803775150f2a

Еще никто не оставлял запись к записи скачать торрент Z. Z. Hill - Z. Z. Hill - 1995, . Будь первым!

!Обратная связь