Скачать через торрент музыку Z.Z. Hill - Bluesmaster - 1984, бесплатно без регистрации torrent

Если у вас наблюдаются проблемы со скриншотами, переходом по ссылками, скачиванием торрентов - проблемы в блокировщике рекламы AdBlock. #хорошегоДня!


Статистика раздачи
Размер:  259 MB   |    Зарегистрирован:  5 лет 8 месяцев   |    .torrent скачан:  40 раз   |   
Раздают:  1  
   
Загрузка...
 
Автор Сообщение

Umakiro

avatar Umakiro


Z.Z. Hill - Bluesmaster

Жанр: Blues
Год издания диска: 1984
Аудиокодек: APE (*.ape)
Тип рипа: image+.cue
Битрейт аудио: lossless
Продолжительность: 37:06
Источник (релизер): CD
Наличие сканов в содержимом раздачи: да
Треклист:
01. You're Ruining My Bad Reputation [0:02:47.96]
02. Bottom Line Woman [0:02:58.86]
03. She Got the Goods on Me [0:03:21.53]
04. Breakdown [0:03:28.53]
05. Personally [0:03:08.24]
06. Champange Lady [0:02:49.00]
07. Be Strong Enough to Hold On [0:03:11.66]
08. I'm Gonna Stop You from Givin' Me the Blues [0:04:10.06]
09. Friday Is My Day [0:04:05.20]
10. I'll Be Your Witness [0:03:37.16]
11. Why Don't You Spend the Night [0:03:27.44]
 
Exact Audio Copy V0.99 prebeta 4 from 23. January 2008

Отчёт EAC об извлечении, выполненном 29. декабря 2011, 1:58

Z.Z. Hill / Bluesmaster

Дисковод: Optiarc DVD RW AD-7173A Adapter: 0 ID: 1

Режим чтения : ДостоверностьИспользование точного потока : ДаОтключение кэша аудио : ДаИспользование указателей C2 : Нет

Коррекция смещения при чтении : 48Способность читать области Lead-in и Lead-out : НетЗаполнение пропущенных сэмплов тишиной : ДаУдаление блоков с тишиной в начале и конце : НетПри вычислениях CRC использовались нулевые сэмплы : ДаИнтерфейс : Встроенный Win32-интерфейс для Win NT/2000

Выходной формат : Внутренние WAV-операцииФормат сэмплов : 44.100 Гц; 16 бит; стерео

TOC извлечённого CD

Трек | Старт | Длительность | Начальный сектор | Конечный сектор --------------------------------------------------------------------- 1 | 0:00.00 | 2:47.72 | 0 | 12596 2 | 2:47.72 | 2:58.65 | 12597 | 26011 3 | 5:46.62 | 3:21.40 | 26012 | 41126 4 | 9:08.27 | 3:28.40 | 41127 | 56766 5 | 12:36.67 | 3:08.18 | 56767 | 70884 6 | 15:45.10 | 2:49.00 | 70885 | 83559 7 | 18:34.10 | 3:11.50 | 83560 | 97934 8 | 21:45.60 | 4:10.05 | 97935 | 116689 9 | 25:55.65 | 4:05.15 | 116690 | 135079 10 | 30:01.05 | 3:37.12 | 135080 | 151366 11 | 33:38.17 | 3:27.33 | 151367 | 166924

Характеристики диапазона извлечения и сообщения об ошибках

Выбранный диапазон

Имя файла D:\КОЛЛЕКЦИЯ 00\Новая папка (4)\Z.Z. Hill - Bluesmaster.wav

Пиковый уровень 99.9 % Качество диапазона 100.0 % CRC теста CA819DD2 CRC копии CA819DD2 Копирование... OK

Ошибок не произошло

AccurateRip: сводка

Трек 1 точное извлечение (доверие 1) [54D188E5]Трек 2 точное извлечение (доверие 1) [4F5F62D4]Трек 3 точное извлечение (доверие 1) [A56BFFBA]Трек 4 точное извлечение (доверие 1) [D0E917AF]Трек 5 точное извлечение (доверие 1) [4F988CD1]Трек 6 точное извлечение (доверие 1) [C357986C]Трек 7 точное извлечение (доверие 1) [5047F436]Трек 8 точное извлечение (доверие 1) [7180A742]Трек 9 точное извлечение (доверие 1) [7087C8CA]Трек 10 точное извлечение (доверие 1) [2D029047]Трек 11 точное извлечение (доверие 1) [38CE21BB]

Все треки извлечены точно

Конец отчёта


Трекер:  [ 27-Янв-2012 18:13 ]

  

Скачать .torrent

Размер .torrent файла 11 KB


Размер: 259 MB
Хэш (hash) релиза: 115953d69bb7fe680584375b8ca0af056e0cd988

Еще никто не оставлял запись к записи скачать торрент Z.Z. Hill - Bluesmaster - 1984, . Будь первым!

!Обратная связь