Скачать через торрент музыку Z.Z. Hill - The Rhythum & The Blues - 1992, бесплатно без регистрации torrent

Если у вас наблюдаются проблемы со скриншотами, переходом по ссылками, скачиванием торрентов - проблемы в блокировщике рекламы AdBlock. #хорошегоДня!


Статистика раздачи
Размер:  256 MB   |    Зарегистрирован:  5 лет 8 месяцев   |    .torrent скачан:  30 раз   |   
Раздают:  1  
   
Загрузка...
 
Автор Сообщение

Umakiro

avatar Umakiro


Z.Z. Hill - The Rhythum & The Blues

Жанр: Blues
Год издания диска: 1992
Аудиокодек: APE (*.ape)
Тип рипа: image+.cue
Битрейт аудио: lossless
Продолжительность: 35:53
Источник (релизер): CD
Наличие сканов в содержимом раздачи: да
Треклист:
01. Someone Else Is Steppin' In [0:03:39.69]
02. What Am I Gonna Tell Her [0:03:15.22]
03. Open House At My House [0:04:49.54]
04. Who You Been Giving It To [0:03:12.93]
05. That Fire Is Hot [0:03:45.16]
06. Wang Dang Doodle [0:03:19.84]
07. Outside Thang [0:03:23.06]
08. You're Gonna Be A Woman [0:03:37.46]
09. Help ME, I'm In Need [0:03:37.09]
10. Get You Some Business [0:03:12.64]
 
Exact Audio Copy V0.99 prebeta 4 from 23. January 2008

Отчёт EAC об извлечении, выполненном 29. декабря 2011, 1:39

Z.Z. Hill / The Rhythum & The Blues

Дисковод: Optiarc DVD RW AD-7173A Adapter: 0 ID: 1

Режим чтения : ДостоверностьИспользование точного потока : ДаОтключение кэша аудио : ДаИспользование указателей C2 : Нет

Коррекция смещения при чтении : 48Способность читать области Lead-in и Lead-out : НетЗаполнение пропущенных сэмплов тишиной : ДаУдаление блоков с тишиной в начале и конце : НетПри вычислениях CRC использовались нулевые сэмплы : ДаИнтерфейс : Встроенный Win32-интерфейс для Win NT/2000

Выходной формат : Внутренние WAV-операцииФормат сэмплов : 44.100 Гц; 16 бит; стерео

TOC извлечённого CD

Трек | Старт | Длительность | Начальный сектор | Конечный сектор --------------------------------------------------------------------- 1 | 0:00.00 | 3:39.52 | 0 | 16476 2 | 3:39.52 | 3:15.17 | 16477 | 31118 3 | 6:54.69 | 4:49.41 | 31119 | 52834 4 | 11:44.35 | 3:12.70 | 52835 | 67304 5 | 14:57.30 | 3:45.12 | 67305 | 84191 6 | 18:42.42 | 3:19.63 | 84192 | 99179 7 | 22:02.30 | 3:23.05 | 99180 | 114409 8 | 25:25.35 | 3:37.35 | 114410 | 130719 9 | 29:02.70 | 3:37.07 | 130720 | 147001 10 | 32:40.02 | 3:12.48 | 147002 | 161449

Характеристики диапазона извлечения и сообщения об ошибках

Выбранный диапазон

Имя файла D:\КОЛЛЕКЦИЯ 00\Новая папка (3)\Z.Z. Hill - The Rhythum & The Blues.wav

Пиковый уровень 99.5 % Качество диапазона 100.0 % CRC теста F659A49D CRC копии F659A49D Копирование... OK

Ошибок не произошло

AccurateRip: сводка

Трек 1 точное извлечение (доверие 2) [000DC5A2]Трек 2 точное извлечение (доверие 2) [1475C528]Трек 3 точное извлечение (доверие 2) [EA76A296]Трек 4 точное извлечение (доверие 2) [B8A45C21]Трек 5 точное извлечение (доверие 2) [2FFAF21E]Трек 6 точное извлечение (доверие 2) [B92F8BBF]Трек 7 точное извлечение (доверие 2) [7E145142]Трек 8 точное извлечение (доверие 2) [EBB9ED32]Трек 9 точное извлечение (доверие 2) [9BB0CFA6]Трек 10 точное извлечение (доверие 2) [F2018C7F]

Все треки извлечены точно

Конец отчёта


Трекер:  [ 27-Янв-2012 18:13 ]

  

Скачать .torrent

Размер .torrent файла 11 KB


Размер: 256 MB
Хэш (hash) релиза: 3498fd91667164380d94eb77e64cf50648df00ed

Еще никто не оставлял запись к записи скачать торрент Z.Z. Hill - The Rhythum & The Blues - 1992, . Будь первым!

!Обратная связь