Скачать через торрент музыку Tinsley Ellis - Georgia Blue - 1988, бесплатно без регистрации torrent

Если у вас наблюдаются проблемы со скриншотами, переходом по ссылками, скачиванием торрентов - проблемы в блокировщике рекламы AdBlock. #хорошегоДня!


Статистика раздачи
Размер:  242 MB   |    Зарегистрирован:  5 лет 8 месяцев   |    .torrent скачан:  35 раз   |   
Раздают:  1  
   
Загрузка...
 
Автор Сообщение

Umakiro

avatar Umakiro


Tinsley Ellis - Georgia Blue

Жанр: Blues/Rock
Страна-производитель диска: USA
Год издания диска: 1988
Издатель (лейбл): Alligator Records
Номер по каталогу: ALCD 4765
Аудиокодек: APE (*.ape)
Тип рипа: image+.cue
Битрейт аудио: lossless
Продолжительность: 41:37
Источник (релизер): CD
Наличие сканов в содержимом раздачи: да
Треклист:
01. Can't You Lie [0:03:51.66]
02. Texas Stomp [0:01:49.16]
03. You Picked A Good Time [0:04:42.57]
04. I've Made Nights By Myself [0:02:36.26]
05. Crime Of Passion [0:03:53.66]
06. Hot Potato [0:03:22.66]
07. Double Eyed Whammy [0:03:28.66]
08. She Wants To Sell My Monkey [0:02:56.86]
09. Look-Ka-Py-Py [0:03:28.96]
10. As The Years Go Passing By [0:04:08.50]
11. Free Man [0:03:57.29]
12. Lucky Lou [0:03:21.00]
 
Exact Audio Copy V0.99 prebeta 4 from 23. January 2008

Отчёт EAC об извлечении, выполненном 27. ноября 2009, 11:32

Ellis, Tinsley / Georgia Blue

Дисковод: PLEXTOR DVDR PX-820A Adapter: 3 ID: 1

Режим чтения : ДостоверностьИспользование точного потока : ДаОтключение кэша аудио : ДаИспользование указателей C2 : Нет

Коррекция смещения при чтении : 48Способность читать области Lead-in и Lead-out : НетЗаполнение пропущенных сэмплов тишиной : ДаУдаление блоков с тишиной в начале и конце : НетПри вычислениях CRC использовались нулевые сэмплы : ДаИнтерфейс : Встроенный Win32-интерфейс для Win NT/2000

Выходной формат : Внутренние WAV-операцииФормат сэмплов : 44.100 Гц; 16 бит; стерео

TOC извлечённого CD

Трек | Старт | Длительность | Начальный сектор | Конечный сектор --------------------------------------------------------------------- 1 | 0:00.00 | 3:51.50 | 0 | 17374 2 | 3:51.50 | 1:49.12 | 17375 | 25561 3 | 5:40.62 | 4:42.43 | 25562 | 46754 4 | 10:23.30 | 2:36.20 | 46755 | 58474 5 | 12:59.50 | 3:53.50 | 58475 | 75999 6 | 16:53.25 | 3:22.50 | 76000 | 91199 7 | 20:16.00 | 3:28.50 | 91200 | 106849 8 | 23:44.50 | 2:56.65 | 106850 | 120114 9 | 26:41.40 | 3:28.72 | 120115 | 135786 10 | 30:10.37 | 4:08.38 | 135787 | 154424 11 | 34:19.00 | 3:57.22 | 154425 | 172221 12 | 38:16.22 | 3:21.00 | 172222 | 187296

Характеристики диапазона извлечения и сообщения об ошибках

Выбранный диапазон

Имя файла D:\Муз раздача 1\TINSLEY ELLIS\GEORGIA BLUE\Ellis, Tinsley - Georgia Blue.wav

Пиковый уровень 91.5 % Качество диапазона 100.0 % CRC копии 95D95CEF Копирование... OK

Ошибок не произошло

AccurateRip: сводка

Трек 1 точность не определена (достоверность 2) [ABBBC006], AccurateRip вернул [410A9FD4]Трек 2 точность не определена (достоверность 2) [9FD6848D], AccurateRip вернул [7CF9974C]Трек 3 точность не определена (достоверность 2) [8ADCB8F9], AccurateRip вернул [4C8B2FCF]Трек 4 точность не определена (достоверность 2) [8748B890], AccurateRip вернул [E2977FE3]Трек 5 точность не определена (достоверность 2) [0720EF12], AccurateRip вернул [0402D8DF]Трек 6 точность не определена (достоверность 2) [F6BE5A6B], AccurateRip вернул [FAB3F6F3]Трек 7 точность не определена (достоверность 2) [CADA021D], AccurateRip вернул [C8C3C570]Трек 8 точность не определена (достоверность 2) [22B86B5F], AccurateRip вернул [55914E48]Трек 9 точность не определена (достоверность 2) [8B089728], AccurateRip вернул [CEEA8060]Трек 10 точность не определена (достоверность 2) [8C1C6DCD], AccurateRip вернул [24F0DEB3]Трек 11 точность не определена (достоверность 2) [40BAAA79], AccurateRip вернул [57841CCB]Трек 12 точность не определена (достоверность 2) [D781B8A6], AccurateRip вернул [79B46FD7]

Ни один трек не прошёл проверки на точностьВ вашей базе может быть иной вариант штамповки диска

Конец отчёта


Трекер:  [ 27-Янв-2012 18:12 ]

  

Скачать .torrent

Размер .torrent файла 20 KB


Размер: 242 MB
Хэш (hash) релиза: 5c556694f2028d92fd81aa92f96643ad4bb103e8

Еще никто не оставлял запись к записи скачать торрент Tinsley Ellis - Georgia Blue - 1988, . Будь первым!

!Обратная связь