Скачать через торрент музыку Karen Lawrence and Blue By Nature - Hard Daze - 1998, бесплатно без регистрации torrent

Если у вас наблюдаются проблемы со скриншотами, переходом по ссылками, скачиванием торрентов - проблемы в блокировщике рекламы AdBlock. #хорошегоДня!


Статистика раздачи
Размер:  206 MB   |    Зарегистрирован:  5 лет 8 месяцев   |    .torrent скачан:  32 раза   |   
Раздают:  1  
   
Загрузка...
 
Автор Сообщение

Umakiro

avatar Umakiro


Karen Lawrence and Blue By Nature - Hard Daze

Жанр: Blues/Rock
Год издания диска: 1998
Аудиокодек: APE (*.ape)
Тип рипа: image+.cue
Битрейт аудио: lossless
Продолжительность: 33:16
Источник (релизер): CD
Наличие сканов в содержимом раздачи: да
Треклист:
01. I'm So Tired [0:04:01.00]
02. Break Down [0:05:06.93]
03. Bad Spell [0:05:29.40]
04. Rain [0:04:16.53]
05. Travelin' Blues [0:03:52.50]
06. You're Gonna Need My Help [0:03:13.62]
07. Hard Day [0:04:59.90]
08. Salt Tears [0:02:16.42]
 
Exact Audio Copy V0.99 prebeta 4 from 23. January 2008

Отчёт EAC об извлечении, выполненном 31. мая 2010, 18:13

Karen Lawrence and Blue By Nature / Hard Daze

Дисковод: PLEXTOR DVDR PX-820A Adapter: 3 ID: 1

Режим чтения : ДостоверностьИспользование точного потока : ДаОтключение кэша аудио : ДаИспользование указателей C2 : Нет

Коррекция смещения при чтении : 48Способность читать области Lead-in и Lead-out : НетЗаполнение пропущенных сэмплов тишиной : ДаУдаление блоков с тишиной в начале и конце : НетПри вычислениях CRC использовались нулевые сэмплы : ДаИнтерфейс : Встроенный Win32-интерфейс для Win NT/2000

Выходной формат : Внутренние WAV-операцииФормат сэмплов : 44.100 Гц; 16 бит; стерео

TOC извлечённого CD

Трек | Старт | Длительность | Начальный сектор | Конечный сектор --------------------------------------------------------------------- 1 | 0:00.00 | 4:01.00 | 0 | 18074 2 | 4:01.00 | 5:06.70 | 18075 | 41094 3 | 9:07.70 | 5:29.30 | 41095 | 65799 4 | 14:37.25 | 4:16.40 | 65800 | 85039 5 | 18:53.65 | 3:52.38 | 85040 | 102477 6 | 22:46.28 | 3:13.47 | 102478 | 116999 7 | 26:00.00 | 4:59.68 | 117000 | 139492 8 | 30:59.68 | 2:16.32 | 139493 | 149724

Характеристики диапазона извлечения и сообщения об ошибках

Выбранный диапазон

Имя файла D:\КОЛЛЕКЦИЯ 5\KAREN LAWRENCE\Karen Lawrence and Blue By Nature - Hard Daze.wav

Пиковый уровень 96.6 % Качество диапазона 100.0 % CRC копии 7EA4D5B3 Копирование... OK

Ошибок не произошло

AccurateRip: сводка

Трек 1 точное извлечение (доверие 1) [F76B9D34]Трек 2 точное извлечение (доверие 1) [B7B6B40A]Трек 3 точное извлечение (доверие 1) [D48B1A9C]Трек 4 точное извлечение (доверие 1) [8B213A45]Трек 5 точное извлечение (доверие 1) [2982D2DE]Трек 6 точное извлечение (доверие 1) [B76264C7]Трек 7 точное извлечение (доверие 1) [4B5589FE]Трек 8 точное извлечение (доверие 1) [A3D3B1CB]

Все треки извлечены точно

Конец отчёта


Трекер:  [ 27-Янв-2012 18:12 ]

  

Скачать .torrent

Размер .torrent файла 17 KB


Размер: 206 MB
Хэш (hash) релиза: 9be7e9e92de41d47c5006db5dcae901443c744c5

Еще никто не оставлял запись к записи скачать торрент Karen Lawrence and Blue By Nature - Hard Daze - 1998, . Будь первым!

!Обратная связь