Скачать через торрент музыку Steve Johnson - blues in the morning - 1997, бесплатно без регистрации torrent

Если у вас наблюдаются проблемы со скриншотами, переходом по ссылками, скачиванием торрентов - проблемы в блокировщике рекламы AdBlock. #хорошегоДня!


Статистика раздачи
Размер:  310 MB   |    Зарегистрирован:  5 лет 8 месяцев   |    .torrent скачан:  31 раз   |   
Раздают:  1  
   
Загрузка...
 
Автор Сообщение

Umakiro

avatar Umakiro


Steve Johnson - blues in the morning

Жанр: Modern Electric Blues
Год издания диска: 1997
Аудиокодек: APE (*.ape)
Тип рипа: image+.cue
Битрейт аудио: lossless
Продолжительность: 52:40
Источник (релизер): CD
Наличие сканов в содержимом раздачи: да
Треклист:
01. happy song [0:04:14.57]
02. leaving new york [0:03:49.96]
03. hide & seek [0:02:54.86]
04. blues in the morning [0:05:36.17]
05. walk with me [0:04:34.13]
06. gone for good [0:04:28.26]
07. bbq [0:04:58.53]
08. shame and a sin [0:06:17.20]
09. seven night to rock [0:03:37.82]
10. I got the blues [0:02:57.24]
11. rattlesnake shake [0:04:40.36]
12. sex machine [0:04:30.70]
 
Exact Audio Copy V0.99 prebeta 4 from 23. January 2008

Отчёт EAC об извлечении, выполненном 7. декабря 2009, 1:05

Steve Johnson / blues in the morning

Дисковод: PLEXTOR DVDR PX-820A Adapter: 3 ID: 1

Режим чтения : ДостоверностьИспользование точного потока : ДаОтключение кэша аудио : ДаИспользование указателей C2 : Нет

Коррекция смещения при чтении : 48Способность читать области Lead-in и Lead-out : НетЗаполнение пропущенных сэмплов тишиной : ДаУдаление блоков с тишиной в начале и конце : НетПри вычислениях CRC использовались нулевые сэмплы : ДаИнтерфейс : Встроенный Win32-интерфейс для Win NT/2000

Выходной формат : Внутренние WAV-операцииФормат сэмплов : 44.100 Гц; 16 бит; стерео

TOC извлечённого CD

Трек | Старт | Длительность | Начальный сектор | Конечный сектор --------------------------------------------------------------------- 1 | 0:00.32 | 4:14.43 | 32 | 19124 2 | 4:15.00 | 3:49.72 | 19125 | 36371 3 | 8:04.72 | 2:54.65 | 36372 | 49486 4 | 10:59.62 | 5:36.13 | 49487 | 74699 5 | 16:36.00 | 4:34.10 | 74700 | 95259 6 | 21:10.10 | 4:28.20 | 95260 | 115379 7 | 25:38.30 | 4:58.40 | 115380 | 137769 8 | 30:36.70 | 6:17.15 | 137770 | 166059 9 | 36:54.10 | 3:37.62 | 166060 | 182396 10 | 40:31.72 | 2:57.18 | 182397 | 195689 11 | 43:29.15 | 4:40.27 | 195690 | 216716 12 | 48:09.42 | 4:30.53 | 216717 | 237019

Характеристики диапазона извлечения и сообщения об ошибках

Выбранный диапазон

Имя файла D:\Муз раздача 1\STEVE JOHNSON\BLUES IN THE MORNING\Steve Johnson - blues in the morning.wav

Пиковый уровень 100.0 % Качество диапазона 99.9 % CRC копии F5A54AB2 Копирование... OK

Ошибок не произошло

AccurateRip: сводка

Трек 1 точное извлечение (доверие 1) [96A2E6EC]Трек 2 точное извлечение (доверие 1) [757069DC]Трек 3 точное извлечение (доверие 1) [CAF54FF4]Трек 4 точное извлечение (доверие 1) [80421C4E]Трек 5 точное извлечение (доверие 1) [9F74A5A2]Трек 6 точное извлечение (доверие 1) [A1C726BB]Трек 7 точное извлечение (доверие 1) [D89D8638]Трек 8 точное извлечение (доверие 1) [E14AFEF8]Трек 9 точное извлечение (доверие 1) [EB55364E]Трек 10 точное извлечение (доверие 1) [553A7234]Трек 11 точное извлечение (доверие 1) [85B27611]Трек 12 точное извлечение (доверие 1) [09F5E406]

Все треки извлечены точно

Конец отчёта


Трекер:  [ 27-Янв-2012 18:11 ]

  

Скачать .torrent

Размер .torrent файла 13 KB


Размер: 310 MB
Хэш (hash) релиза: 0162fd47744dd4533bbd35aa77bf4c717130921f

Еще никто не оставлял запись к записи скачать торрент Steve Johnson - blues in the morning - 1997, . Будь первым!

!Обратная связь