Скачать через торрент музыку Steve Johnson - Blues Distorsion - 2000, бесплатно без регистрации torrent

Если у вас наблюдаются проблемы со скриншотами, переходом по ссылками, скачиванием торрентов - проблемы в блокировщике рекламы AdBlock. #хорошегоДня!


Статистика раздачи
Размер:  329 MB   |    Зарегистрирован:  5 лет 8 месяцев   |    .torrent скачан:  32 раза   |   
Раздают:  1  
   
Загрузка...
 
Автор Сообщение

Umakiro

avatar Umakiro


Steve Johnson - Blues Distorsion

Жанр: Modern Electric Blues
Год издания диска: 2000
Аудиокодек: APE (*.ape)
Тип рипа: image+.cue
Битрейт аудио: lossless
Продолжительность: 52:10
Источник (релизер): CD
Наличие сканов в содержимом раздачи: да
Треклист:
01. Early in the Morning [0:04:56.06]
02. Stop Messin' 'Round [0:02:53.53]
03. On Your Bond [0:04:05.17]
04. Done Left Town [0:03:14.53]
05. She Wanna Boogie [0:03:32.80]
06. Bus Blues [0:02:58.13]
07. Dig Your Grave [0:05:18.09]
08. Buddy's Getaway [0:03:00.53]
09. B.L.U.E.S. [0:04:42.64]
10. Worried Blues [0:06:42.46]
11. Beer [0:02:42.29]
12. Big Legs [0:03:40.50]
13. Sleepwalk [0:04:23.42]
 
Exact Audio Copy V0.99 prebeta 4 from 23. January 2008

Отчёт EAC об извлечении, выполненном 7. декабря 2009, 2:34

Steve Johnson / Blues Distorsion

Дисковод: PLEXTOR DVDR PX-820A Adapter: 3 ID: 1

Режим чтения : ДостоверностьИспользование точного потока : ДаОтключение кэша аудио : ДаИспользование указателей C2 : Нет

Коррекция смещения при чтении : 48Способность читать области Lead-in и Lead-out : НетЗаполнение пропущенных сэмплов тишиной : ДаУдаление блоков с тишиной в начале и конце : НетПри вычислениях CRC использовались нулевые сэмплы : ДаИнтерфейс : Встроенный Win32-интерфейс для Win NT/2000

Выходной формат : Внутренние WAV-операцииФормат сэмплов : 44.100 Гц; 16 бит; стерео

TOC извлечённого CD

Трек | Старт | Длительность | Начальный сектор | Конечный сектор --------------------------------------------------------------------- 1 | 0:00.32 | 4:56.05 | 32 | 22236 2 | 4:56.37 | 2:53.40 | 22237 | 35251 3 | 7:50.02 | 4:05.13 | 35252 | 53639 4 | 11:55.15 | 3:14.40 | 53640 | 68229 5 | 15:09.55 | 3:32.60 | 68230 | 84189 6 | 18:42.40 | 2:58.10 | 84190 | 97549 7 | 21:40.50 | 5:18.07 | 97550 | 121406 8 | 26:58.57 | 3:00.40 | 121407 | 134946 9 | 29:59.22 | 4:42.48 | 134947 | 156144 10 | 34:41.70 | 6:42.35 | 156145 | 186329 11 | 41:24.30 | 2:42.22 | 186330 | 198501 12 | 44:06.52 | 3:40.38 | 198502 | 215039 13 | 47:47.15 | 4:23.32 | 215040 | 234796

Характеристики диапазона извлечения и сообщения об ошибках

Выбранный диапазон

Имя файла D:\Муз раздача 1\STEVE JOHNSON\BLUES DISTORTION\Steve Johnson - Blues Distorsion.wav

Пиковый уровень 100.0 % Качество диапазона 100.0 % CRC копии CC31EA33 Копирование... OK

Ошибок не произошло

AccurateRip: сводка

Трек 1 точное извлечение (доверие 1) [9F47C0EA]Трек 2 точное извлечение (доверие 1) [F7A1F37D]Трек 3 точное извлечение (доверие 1) [AFEDBF9E]Трек 4 точное извлечение (доверие 1) [3B205D50]Трек 5 точное извлечение (доверие 1) [76781191]Трек 6 точное извлечение (доверие 1) [E4F35D8A]Трек 7 точное извлечение (доверие 1) [19B3F39A]Трек 8 точное извлечение (доверие 1) [BA026797]Трек 9 точное извлечение (доверие 1) [03C48178]Трек 10 точное извлечение (доверие 1) [7BB0CD16]Трек 11 точное извлечение (доверие 1) [5C536D11]Трек 12 точное извлечение (доверие 1) [351EF6C4]Трек 13 точное извлечение (доверие 1) [CA963A43]

Все треки извлечены точно

Конец отчёта


Трекер:  [ 27-Янв-2012 18:11 ]

  

Скачать .torrent

Размер .torrent файла 13 KB


Размер: 329 MB
Хэш (hash) релиза: bf6151d2f3f91f7601095eee35e84b241e1c5fc3

Еще никто не оставлял запись к записи скачать торрент Steve Johnson - Blues Distorsion - 2000, . Будь первым!

!Обратная связь