Скачать через торрент музыку Steve Johnson - Blue Guitar - 1998, бесплатно без регистрации torrent

Если у вас наблюдаются проблемы со скриншотами, переходом по ссылками, скачиванием торрентов - проблемы в блокировщике рекламы AdBlock. #хорошегоДня!


Статистика раздачи
Размер:  340 MB   |    Зарегистрирован:  5 лет 8 месяцев   |    .torrent скачан:  33 раза   |   
Раздают:  1  
   
Загрузка...
 
Автор Сообщение

Umakiro

avatar Umakiro


Steve Johnson - Blue Guitar

Жанр: Modern Electric Blues
Год издания диска: 1998
Аудиокодек: APE (*.ape)
Тип рипа: image+.cue
Битрейт аудио: lossless
Продолжительность: 55:32
Источник (релизер): CD
Наличие сканов в содержимом раздачи: да
Треклист:
01. Lunch time [0:03:44.04]
02. Let's be bad [0:02:53.00]
03. What so good about that [0:04:31.26]
04. Tired of tryin' [0:03:34.26]
05. Learn to be nice [0:06:22.06]
06. Jumping at shadow [0:04:03.26]
07. Been so long [0:04:56.56]
08. All the time in the world [0:05:06.10]
09. What do you do when i'm gone [0:08:11.80]
10. Flat tire blues [0:03:34.13]
11. Can't take it whith you [0:04:57.46]
12. Wild magnolia [0:03:38.46]
 
Exact Audio Copy V0.99 prebeta 4 from 23. January 2008

Отчёт EAC об извлечении, выполненном 7. декабря 2009, 1:54

Steve Johnson / Blue Guitar

Дисковод: PLEXTOR DVDR PX-820A Adapter: 3 ID: 1

Режим чтения : ДостоверностьИспользование точного потока : ДаОтключение кэша аудио : ДаИспользование указателей C2 : Нет

Коррекция смещения при чтении : 48Способность читать области Lead-in и Lead-out : НетЗаполнение пропущенных сэмплов тишиной : ДаУдаление блоков с тишиной в начале и конце : НетПри вычислениях CRC использовались нулевые сэмплы : ДаИнтерфейс : Встроенный Win32-интерфейс для Win NT/2000

Выходной формат : Внутренние WAV-операцииФормат сэмплов : 44.100 Гц; 16 бит; стерео

TOC извлечённого CD

Трек | Старт | Длительность | Начальный сектор | Конечный сектор --------------------------------------------------------------------- 1 | 0:00.32 | 3:44.03 | 32 | 16834 2 | 3:44.35 | 2:53.00 | 16835 | 29809 3 | 6:37.35 | 4:31.20 | 29810 | 50154 4 | 11:08.55 | 3:34.20 | 50155 | 66224 5 | 14:43.00 | 6:22.05 | 66225 | 94879 6 | 21:05.05 | 4:03.20 | 94880 | 113124 7 | 25:08.25 | 4:56.42 | 113125 | 135366 8 | 30:04.67 | 5:06.08 | 135367 | 158324 9 | 35:11.00 | 8:11.60 | 158325 | 195209 10 | 43:22.60 | 3:34.10 | 195210 | 211269 11 | 46:56.70 | 4:57.35 | 211270 | 233579 12 | 51:54.30 | 3:38.35 | 233580 | 249964

Характеристики диапазона извлечения и сообщения об ошибках

Выбранный диапазон

Имя файла D:\Муз раздача 1\STEVE JOHNSON\BLUE GUITAR\Steve Johnson - Blue Guitar.wav

Пиковый уровень 100.0 % Качество диапазона 100.0 % CRC копии 6D040C55 Копирование... OK

Ошибок не произошло

AccurateRip: сводка

Трек 1 точное извлечение (доверие 1) [241557B9]Трек 2 точное извлечение (доверие 1) [ED517667]Трек 3 точное извлечение (доверие 1) [8B2EED60]Трек 4 точное извлечение (доверие 1) [44CB435F]Трек 5 точное извлечение (доверие 1) [D28D38EC]Трек 6 точное извлечение (доверие 1) [14467CC8]Трек 7 точное извлечение (доверие 1) [03860D64]Трек 8 точное извлечение (доверие 1) [0162C829]Трек 9 точное извлечение (доверие 1) [AD415BE0]Трек 10 точное извлечение (доверие 1) [FE30595D]Трек 11 точное извлечение (доверие 1) [E3E18DAE]Трек 12 точное извлечение (доверие 1) [3DCF4D4F]

Все треки извлечены точно

Конец отчёта


Трекер:  [ 27-Янв-2012 18:10 ]

  

Скачать .torrent

Размер .torrent файла 14 KB


Размер: 340 MB
Хэш (hash) релиза: fd98d49736d0ae18dc31323a63dca8921fef2ee3

Еще никто не оставлял запись к записи скачать торрент Steve Johnson - Blue Guitar - 1998, . Будь первым!

!Обратная связь